Уважаемые гости сайта! Добро Пожаловать на наш торрент трекер,где Вы можете бесплатно скачать любой Софт,Фильмы,Музыку и многое другое! А так же постоянно ведется набор модераторов и релизеров. Зарегистрируйтесь сейчас, чтобы получить доступ ко всем функциям. После регистрации или входа на сайт вы сможете создавать темы, отвечать на сообщения и скачивать файлы.

Навигация по Торрент раздачам и Форум и Стол заказов и Группы

 Пункт назначения. Аквапарк / Aquaslash (Рено Готье) [2019, Ужасы, WEB-DL 1080p] DUB (iTunes)

Главная  Кинофильмы  Зарубежные кинофильмы
Статистика раздачи
Нет
Сегодня идет свободное скачивание без начисления Download
 
     
 
 
 
Автор Сообщение
  • kisel ®
  • Не в сети

    Автор темы

  • 7467
  • Пол: Мужской

  • Стаж: 25 дней

  • Сообщений: 26

  • Провайдер: UzOnline UzOnline

  • Карма: 0


  • Нет нарушения:

  • Награды: Нет
  • Создавать темы 03-Янв-2021 01:52

    Информация о фильме
    Название: Пункт назначения. Аквапарк
    Оригинальное название: Aquaslash
    Год выхода: 2019
    Жанр: Ужасы
    Режиссер: Рено Готье
    В ролях: Николас Фонтейн, Бриттани Дрисделл, Ник Уокер, Мадлен Харви, Пол Зинно, Чип Чуипка, Ховард Розенштейн, Райан Али, Камерон Геллер, Ланиса Доун
    О фильме: Что может быть заманчивее для выпускников школы, чем вечеринка в стиле ретро, в духе лихих 80-х, в максимально подходящем для этого старом аквапарке? Реки алкоголя, девушки в откровенных купальниках, выступление отвязной рок-группы — все шло идеально, до тех пор, пока в планы выпускников не вмешалась смерть. Теперь спуск с горок аквапарка может стать самым последним впечатлением в жизни для участников конкурсов. Кто рискнет прокатиться?

    Страна: Канада
    Студия: Black Pills, Productions Guérilla (Aquaslash), Rockzeline
    Продолжительность: 01:11:19
    Перевод: Дублированный | iTunes
    Файл
    Формат: MKV
    Качество: WEB-DL 1080p
    Видео: MPEG-4 AVC, 1920x1080 (16:9), 7318 Kbps, 23.976 fps
    Аудио 1: Russian: 48 kHz, AC3, 3/2 (L,C,R,l,r) + LFE ch, ~384 kbps
    Аудио 2: English: 48 kHz, E-AC3, 2/0 (L,R) ch, ~224 kbps
    Субтитры: Английские (SDH)

    Скриншоты

    MediaInfo

    General
    Unique ID : 288313768498038889326134890526006473347 (0xD8E736467B0F9F4EF3F538DC77267283)
    Complete name : AQUASLASH_2019_WEB-DL_1080p_AMAZON-BLUEBIRD.mkv
    Format : Matroska
    Format version : Version 4 / Version 2
    File size : 3.95 GiB
    Duration : 1 h 11 min
    Overall bit rate : 7 928 kb/s
    Encoded date : UTC 2020-12-31 20:08:01
    Writing application : mkvmerge v51.0.0 ('I Wish') 64-bit
    Writing library : libebml v1.4.0 + libmatroska v1.6.2
    Cover : Yes
    Attachments : cover.4.png
    Video
    ID : 1
    Format : AVC
    Format/Info : Advanced Video Codec
    Format profile : High@L4
    Format settings, CABAC : Yes
    Format settings, RefFrames : 4 frames
    Codec ID : V_MPEG4/ISO/AVC
    Duration : 1 h 11 min
    Bit rate mode : Constant
    Bit rate : 7 318 kb/s
    Nominal bit rate : 10 000 kb/s
    Width : 1 920 pixels
    Height : 1 080 pixels
    Display aspect ratio : 16:9
    Frame rate mode : Constant
    Frame rate : 23.976 (24000/1001) FPS
    Color space : YUV
    Chroma subsampling : 4:2:0
    Bit depth : 8 bits
    Scan type : Progressive
    Bits/(Pixel*Frame) : 0.147
    Stream size : 3.65 GiB (92%
    Default : Yes
    Forced : No
    Color range : Limited
    Color primaries : BT.709
    Transfer characteristics : BT.709
    Matrix coefficients : BT.709
    Audio #1
    ID : 2
    Format : AC-3
    Format/Info : Audio Coding 3
    Format settings, Endianness : Big
    Codec ID : A_AC3
    Duration : 1 h 11 min
    Bit rate mode : Constant
    Bit rate : 384 kb/s
    Channel(s) : 6 channels
    Channel positions : Front: L C R, Side: L R, LFE
    Sampling rate : 48.0 kHz
    Frame rate : 31.250 FPS (1536 SPF)
    Bit depth : 16 bits
    Compression mode : Lossy
    Stream size : 196 MiB (5%)
    Title : [DUB] DD 5.1 @ 384 kbps (iTunes)
    Language : Russian
    Service kind : Complete Main
    Default : Yes
    Forced : No
    Audio #2
    ID : 3
    Format : E-AC-3
    Format/Info : Enhanced Audio Coding 3
    Format settings, Endianness : Big
    Codec ID : A_EAC3
    Duration : 1 h 11 min
    Bit rate mode : Constant
    Bit rate : 224 kb/s
    Channel(s) : 2 channels
    Channel positions : Front: L R
    Sampling rate : 48.0 kHz
    Frame rate : 187.500 FPS (256 SPF)
    Compression mode : Lossy
    Stream size : 114 MiB (3%)
    Title : [ORIGINAL] DD+ 2.0 @ 224 kbps (Amazon)
    Language : English
    Service kind : Complete Main
    Default : No
    Forced : No
    Text
    ID : 4
    Format : UTF-8
    Codec ID : S_TEXT/UTF8
    Codec ID/Info : UTF-8 Plain Text
    Duration : 1 h 8 min
    Bit rate : 52 b/s
    Count of elements : 1015
    Stream size : 26.3 KiB (0%)
    Title : SDH
    Language : English
    Default : No
    Forced : No
    Показать сообщения:    
    Главная  Кинофильмы  Зарубежные кинофильмы

    Текущее время: 26-Янв 02:16

    Часовой пояс: UTC + 5



    Вы не можете начинать темы
    Вы не можете отвечать на сообщения
    Вы не можете редактировать свои сообщения
    Вы не можете удалять свои сообщения
    Вы не можете голосовать в опросах
    Вы не можете прикреплять файлы к сообщениям
    Вы не можете скачивать файлы