Уважаемые гости сайта! Добро Пожаловать на наш торрент трекер,где Вы можете бесплатно скачать любой Софт,Фильмы,Музыку и многое другое! А так же постоянно ведется набор модераторов и релизеров. Зарегистрируйтесь сейчас, чтобы получить доступ ко всем функциям. После регистрации или входа на сайт вы сможете создавать темы, отвечать на сообщения и скачивать файлы.

Навигация по Торрент раздачам и Форум и Стол заказов и Группы

 Ускорение / Acceleration (Эндрю Кон) [2019, Боевик, триллер, криминал, BDRip] MVO (iTunes)

Главная  Кинофильмы  Зарубежные кинофильмы
Статистика раздачи
Нет
 
     
 
 
 
Автор Сообщение
  • kisel ®
  • Не в сети

    Автор темы

  • 7467
  • Пол: Мужской

  • Стаж: 3 месяца 18 дней

  • Сообщений: 26

  • Провайдер: UzOnline UzOnline

  • Карма: 0


  • Нет нарушения:

  • Награды: Нет
  • Создавать темы 03-Янв-2021 01:36

    Информация о фильме
    Название: Ускорение
    Оригинальное название: Acceleration
    Год выхода: 2019
    Жанр: Боевик, триллер, криминал
    Режиссер: Эндрю Кон
    В ролях: Шон Патрик Флэнери, Дольф Лундгрен, Чак Лиделл, Наталия Берн, Куинтон Джексон, Дэнни Трехо, Ал Сапиенца, Olya Banar, Riccardo Berdini, Райан Карнес
    О фильме:
    Владик Зорич – криминальный авторитет Лос-Анджелеса, он торгует оружием, наркотиками, управляет подпольными казино и похищает людей ради выкупа. Его агент, которому он доверял больше всех – Рона Зиоки, обманывает его. Поэтому Владик похищает сына Роны и шантажом заставляет ее делать грязную работу, которая у него скопилась: отомстить своим врагам, добыть нужную информацию и ценности. Пять заданий она должна успеть выполнить за одну ночь. А чтобы держать Рону на коротком поводке, он диктует ей правила игры, следя за каждым ее шагом. Но Владик недооценил силу материнской любви и вскоре обнаруживает, что все выходит из-под контроля и его план медленно рушится.


    Страна: США
    Студия: 7Heaven Productions, Cinetel Films, MCMFILMS
    Продолжительность: 01:25:13
    Перевод: Профессиональный (многоголосый, закадровый) | iTunes
    Файл
    Качество: BDRip
    Формат: AVI
    Кодек: XviD
    Видео: 704x400 (16:9), 23,976 fps, XviD ~ 1997 Kbps avg, 0.296 bit/pixel
    Аудио: AC3, 48 kHz, 6 ch, ~384.00 kbps avg | русский | iTunes
    Субтитры: Отсутствуют

    MediaInfo

    General
    Complete name : E:\Acceleration.2019.BDRip.avi
    Format : AVI
    Format/Info : Audio Video Interleave
    File size : 1.42 GiB
    Duration : 1 h 25 min
    Overall bit rate : 2 390 kb/s
    Movie name : Ускорение / Acceleration (2019)
    Director : stillet@MegaPeer
    Genre : Боевик, триллер, криминал
    Writing application : VirtualDubModRus 1.5.10.2 (build 2542/release)
    Writing library : VirtualDubMod build 2542/release
    Video
    ID : 0
    Format : MPEG-4 Visual
    Format profile : Advanced Simple@L5
    Format settings : BVOP1 / Custom Matrix
    Format settings, BVOP : 1
    Format settings, QPel : No
    Format settings, GMC : No warppoints
    Format settings, Matrix : Custom
    Codec ID : XVID
    Codec ID/Hint : XviD
    Duration : 1 h 25 min
    Bit rate : 1 997 kb/s
    Width : 704 pixels
    Height : 400 pixels
    Display aspect ratio : 16:9
    Frame rate : 23.976 (24000/1001) FPS
    Color space : YUV
    Chroma subsampling : 4:2:0
    Bit depth : 8 bits
    Scan type : Progressive
    Compression mode : Lossy
    Bits/(Pixel*Frame) : 0.296
    Stream size : 1.19 GiB (84%)
    Writing library : XviD 73
    Audio
    ID : 1
    Format : AC-3
    Format/Info : Audio Coding 3
    Commercial name : Dolby Digital
    Codec ID : 2000
    Duration : 1 h 25 min
    Bit rate mode : Constant
    Bit rate : 384 kb/s
    Channel(s) : 6 channels
    Channel layout : L R C LFE Ls Rs
    Sampling rate : 48.0 kHz
    Frame rate : 31.250 FPS (1536 SPF)
    Compression mode : Lossy
    Stream size : 234 MiB (16%)
    Alignment : Split across interleaves
    Interleave, duration : 42 ms (1.00 video frame)
    Interleave, preload duration : 500 ms
    Service kind : Complete Main

    Скриншоты

    Показать сообщения:    
    Главная  Кинофильмы  Зарубежные кинофильмы

    Текущее время: 19-Апр 04:57

    Часовой пояс: UTC + 5



    Вы не можете начинать темы
    Вы не можете отвечать на сообщения
    Вы не можете редактировать свои сообщения
    Вы не можете удалять свои сообщения
    Вы не можете голосовать в опросах
    Вы не можете прикреплять файлы к сообщениям
    Вы не можете скачивать файлы