Уважаемые гости сайта! Добро Пожаловать на наш торрент трекер,где Вы можете бесплатно скачать любой Софт,Фильмы,Музыку и многое другое! А так же постоянно ведется набор модераторов и релизеров. Зарегистрируйтесь сейчас, чтобы получить доступ ко всем функциям. После регистрации или входа на сайт вы сможете создавать темы, отвечать на сообщения и скачивать файлы.

Навигация по Торрент раздачам и Форум и Стол заказов и Группы

  Повелитель драконов / Dragon Rider (Томер Ешед) [2020, Мультфильм, приключения, семейный, WEB-DL 1080p] DUB (iTunes)

Главная  Мультфильмы  Зарубежные мультфильмы  Новинки
Статистика раздачи
Нет
Сегодня идет свободное скачивание без начисления Download
 
     
 
 
 
Автор Сообщение
  • kisel ®
  • Не в сети

    Автор темы

  • 7467
  • Пол: Мужской

  • Стаж: 25 дней

  • Сообщений: 26

  • Провайдер: UzOnline UzOnline

  • Карма: 0


  • Нет нарушения:

  • Награды: Нет
  • Создавать темы 01-Янв-2021 22:50

    Информация о фильме
    Название: Повелитель драконов
    Оригинальное название: Dragon Rider
    Год выхода: 2020
    Жанр: Мультфильм, приключения, семейный
    Режиссер: Томер Ешед
    В ролях: Томас Сэнгстер, Фелисити Джонс, Фредди Хаймор, Патрик Стюарт, Нонсо Анози, Мира Сайал, Санджив Бхаскар, Стефен Хоган, Дэвид Брукс

    О фильме:
    Когда-то драконы властвовали на Земле, но в наши дни их можно встретить только в кино. Однако молодой дракон, пробираясь сквозь небоскребы мегаполисов и уклоняясь от взоров вечно спешащих людей, мечтает добраться до мест, где по легендам могучие рептилии живут в спокойствии и безопасности. Он просит о помощи одного незадачливого паренька, который, как и все мы, даже не подозревал, что драконы реальные и очень даже милые существа. Вместе они отправятся в путешествие по самым таинственным уголкам Земли, а юноше придется постараться, ведь спасти драконий род может только истинный повелитель драконов!


    Страна: Германия
    Студия: Constantin Film, Able & Baker, Cyborn
    Продолжительность: 01:31:30
    Перевод: Дублированный | iTunes
    Файл
    Формат: Matroska
    Качество: WEB-DL 1080p
    Видео: MPEG-4 AVC, 1920x804 (2.40:1), 4513 Kbps, 24.000 fps
    Аудио 1: Russian: 48 kHz, AC3, 3/2 (L,C,R,l,r) + LFE ch, ~384 kbps
    Аудио 2: Ukrainian: 48 kHz, AC3, 3/2 (L,C,R,l,r) + LFE ch, ~384 kbps
    Субтитры: Нет

    MediaInfo

    General
    Unique ID : 250036825275149844392284165968866588171 (0xBC1B574533C8CD0097261D8FE52C360B)
    Complete name : Dragon.Rider.2020.WEB-DL.1080p.mkv
    Format : Matroska
    Format version : Version 4 / Version 2
    File size : 3.38 GiB
    Duration : 1 h 31 min
    Overall bit rate : 5 283 kb/s
    Encoded date : UTC 2021-01-01 11:56:55
    Writing application : mkvmerge v7.8.0 ('River Man') 32bit built on Apr 3 2015 12:11:22
    Writing library : libebml v1.3.1 + libmatroska v1.4.2
    Video
    ID : 1
    Format : AVC
    Format/Info : Advanced Video Codec
    Format profile : High@L4
    Format settings, CABAC : Yes
    Format settings, RefFrames : 5 frames
    Codec ID : V_MPEG4/ISO/AVC
    Duration : 1 h 31 min
    Bit rate : 4 513 kb/s
    Width : 1 920 pixels
    Height : 804 pixels
    Display aspect ratio : 2.40:1
    Frame rate mode : Constant
    Frame rate : 24.000 FPS
    Color space : YUV
    Chroma subsampling : 4:2:0
    Bit depth : 8 bits
    Scan type : Progressive
    Bits/(Pixel*Frame) : 0.122
    Stream size : 2.88 GiB (85%)
    Language : English
    Default : Yes
    Forced : No
    Color range : Limited
    Color primaries : BT.709
    Transfer characteristics : BT.709
    Matrix coefficients : BT.709
    Audio #1
    ID : 2
    Format : AC-3
    Format/Info : Audio Coding 3
    Format settings, Endianness : Big
    Codec ID : A_AC3
    Duration : 1 h 31 min
    Bit rate mode : Constant
    Bit rate : 384 kb/s
    Channel(s) : 6 channels
    Channel positions : Front: L C R, Side: L R, LFE
    Sampling rate : 48.0 kHz
    Frame rate : 31.250 FPS (1536 SPF)
    Bit depth : 16 bits
    Compression mode : Lossy
    Stream size : 251 MiB (7%)
    Title : iTunes
    Language : Russian
    Service kind : Complete Main
    Default : Yes
    Forced : No
    Audio #2
    ID : 3
    Format : AC-3
    Format/Info : Audio Coding 3
    Format settings, Endianness : Big
    Codec ID : A_AC3
    Duration : 1 h 31 min
    Bit rate mode : Constant
    Bit rate : 384 kb/s
    Channel(s) : 6 channels
    Channel positions : Front: L C R, Side: L R, LFE
    Sampling rate : 48.0 kHz
    Frame rate : 31.250 FPS (1536 SPF)
    Bit depth : 16 bits
    Compression mode : Lossy
    Stream size : 251 MiB (7%)
    Title : iTunes
    Language : Ukrainian
    Service kind : Complete Main
    Default : No
    Forced : No
    Menu
    00:00:00.000 : en:Глава 1
    00:08:41.500 : en:Глава 2
    00:16:54.708 : en:Глава 3
    00:25:04.624 : en:Глава 4
    00:33:06.665 : en:Глава 5
    00:41:45.123 : en:Глава 6
    00:49:48.623 : en:Глава 7
    00:58:09.164 : en:Глава 8
    01:06:22.080 : en:Глава 9
    01:14:31.871 : en:Глава 10
    01:22:38.954 : en:Глава 11

    Скриншоты

    Показать сообщения:    
    Главная  Мультфильмы  Зарубежные мультфильмы  Новинки

    Текущее время: 26-Янв 00:07

    Часовой пояс: UTC + 5



    Вы не можете начинать темы
    Вы не можете отвечать на сообщения
    Вы не можете редактировать свои сообщения
    Вы не можете удалять свои сообщения
    Вы не можете голосовать в опросах
    Вы не можете прикреплять файлы к сообщениям
    Вы не можете скачивать файлы