Уважаемые гости сайта! Добро Пожаловать на наш торрент трекер,где Вы можете бесплатно скачать любой Софт,Фильмы,Музыку и многое другое! А так же постоянно ведется набор модераторов и релизеров. Зарегистрируйтесь сейчас, чтобы получить доступ ко всем функциям. После регистрации или входа на сайт вы сможете создавать темы, отвечать на сообщения и скачивать файлы.

Навигация по Торрент раздачам и Форум и Стол заказов и Группы

 Чудо-женщина: 1984 / Wonder Woman 1984 (Патти Дженкинс) [2020, Фэнтези, боевик, приключения, WEB-DLRip] MVO (HDRezka Studio)

Главная  Кинофильмы  Зарубежные кинофильмы  Новинки
Статистика раздачи
Нет
 
     
 
 
 
Автор Сообщение
  • kisel ®
  • Не в сети

    Автор темы

  • 7467
  • Пол: Мужской

  • Стаж: 3 месяца 18 дней

  • Сообщений: 26

  • Провайдер: UzOnline UzOnline

  • Карма: 0


  • Нет нарушения:

  • Награды: Нет
  • Создавать темы 01-Янв-2021 22:25

    Название: Чудо-женщина: 1984
    Оригинальное название: Wonder Woman 1984
    Год выпуска: 2020
    Жанр: Фэнтези, боевик, приключения
    Режиссер: Патти Дженкинс
    В ролях: Галь Гадот, Крис Пайн, Кристен Уиг, Педро Паскаль, Робин Райт, Конни Нильсен, Лилли Аспелл, Амр Вакед, Кристоффер Полаха, Наташа Ротуэлл
    О фильме: Влиятельный и успешный бизнесмен Лорд мечтает стать богом среди смертных. Для этого он не жалеет средств и собирает со всех уголков света разнообразные магические артефакты, пытаясь найти тот, который сможет подарить ему безграничную силу и могущество. В поисках ему помогает специалист по древней истории доктор Барбара Энн Минерва. Так в руки Минервы попадает некий артефакт, который превращает её в дикую, кровожадную и неуправляемую женщину-кошку — Гепарду. Вне себя от ярости она начинает охоту за Лордом, по чьей вине и превратилась в монстра.

    Страна: США, Великобритания, Испания
    Студия: Atlas Entertainment, DC Comics, DC Entertainment
    Продолжительность: 02:31:05
    Перевод: Профессиональный многоголосый | HDRezka Studio
    Качество: WEB-DLRip
    Видео: XviD, 798 Кбит/с, 640x336
    Аудио: MP3, 2 ch, 128 Кбит/с
    Субтитры: Русские форсированные (отдельно)

    MediaInfo

    General
    Complete name : C:\TOR\Wonder.Woman.1984.2020.MVO.IMAX.AMZN.WEB-DLRip.1.46Gb\Wonder.Woman.1984.2020.MVO.IMAX.AMZN.WEB-DLRip.1.46Gb.MegaPeer.avi
    Format : AVI
    Format/Info : Audio Video Interleave
    File size : 1.46 GiB
    Duration : 2 h 31 min
    Overall bit rate : 1 380 kb/s
    Writing application : VirtualDubModRus 1.5.10.2 (build 2542/release)
    Writing library : VirtualDubMod build 2542/release
    Video
    ID : 0
    Format : MPEG-4 Visual
    Format profile : Advanced Simple@L5
    Format settings : BVOP1 / Custom Matrix
    Format settings, BVOP : 1
    Format settings, QPel : No
    Format settings, GMC : No warppoints
    Format settings, Matrix : Custom
    Codec ID : XVID
    Codec ID/Hint : XviD
    Duration : 2 h 31 min
    Bit rate : 1 243 kb/s
    Width : 704 pixels
    Height : 384 pixels
    Display aspect ratio : 1.85:1
    Frame rate : 23.976 (24000/1001) FPS
    Color space : YUV
    Chroma subsampling : 4:2:0
    Bit depth : 8 bits
    Scan type : Progressive
    Compression mode : Lossy
    Bits/(Pixel*Frame) : 0.192
    Stream size : 1.31 GiB (90%)
    Writing library : XviD 73
    Audio
    ID : 1
    Format : MPEG Audio
    Format version : Version 1
    Format profile : Layer 3
    Codec ID : 55
    Codec ID/Hint : MP3
    Duration : 2 h 31 min
    Bit rate mode : Constant
    Bit rate : 128 kb/s
    Channel(s) : 2 channels
    Sampling rate : 48.0 kHz
    Frame rate : 41.667 FPS (1152 SPF)
    Compression mode : Lossy
    Stream size : 138 MiB (9%)
    Alignment : Aligned on interleaves
    Interleave, duration : 42 ms (1.00 video frame)
    Interleave, preload duration : 504 ms
    Writing library : LAME3.99r
    Encoding settings : -m s -V 4 -q 2 -lowpass 17 -b 128

    Скриншоты

    Показать сообщения:    
    Главная  Кинофильмы  Зарубежные кинофильмы  Новинки

    Текущее время: 19-Апр 05:12

    Часовой пояс: UTC + 5



    Вы не можете начинать темы
    Вы не можете отвечать на сообщения
    Вы не можете редактировать свои сообщения
    Вы не можете удалять свои сообщения
    Вы не можете голосовать в опросах
    Вы не можете прикреплять файлы к сообщениям
    Вы не можете скачивать файлы