Уважаемые гости сайта! Добро Пожаловать на наш торрент трекер,где Вы можете бесплатно скачать любой Софт,Фильмы,Музыку и многое другое! А так же постоянно ведется набор модераторов и релизеров. Зарегистрируйтесь сейчас, чтобы получить доступ ко всем функциям. После регистрации или входа на сайт вы сможете создавать темы, отвечать на сообщения и скачивать файлы.

Навигация по Торрент раздачам и Форум и Стол заказов и Группы

 Чудо-женщина: 1984 / Wonder Woman 1984 (Патти Дженкинс) [2020, Фэнтези, боевик, приключения, WEB-DL 720p] MVO (HDRezka Studio)

Главная  Кинофильмы  Зарубежные кинофильмы
Статистика раздачи
Скачал: [ 1 ]
Сегодня идет свободное скачивание без начисления Download
 
     
 
 
 
Автор Сообщение
  • kisel ®
  • Не в сети

    Автор темы

  • 7467
  • Пол: Мужской

  • Стаж: 25 дней

  • Сообщений: 26

  • Провайдер: UzOnline UzOnline

  • Карма: 0


  • Нет нарушения:

  • Награды: Нет
  • Создавать темы 01-Янв-2021 22:14

    Информация о фильме
    Название: Чудо-женщина: 1984
    Оригинальное название: Wonder Woman 1984
    Год выхода: 2020
    Жанр: Фэнтези, боевик, приключения
    Режиссер: Патти Дженкинс
    В ролях: Галь Гадот, Крис Пайн, Кристен Уиг, Педро Паскаль, Робин Райт, Конни Нильсен, Лилли Аспелл, Амр Вакед, Кристоффер Полаха, Наташа Ротуэлл
    О фильме:
    Влиятельный и успешный бизнесмен Лорд мечтает стать богом среди смертных. Для этого он не жалеет средств и собирает со всех уголков света разнообразные магические артефакты, пытаясь найти тот, который сможет подарить ему безграничную силу и могущество. В поисках ему помогает специалист по древней истории доктор Барбара Энн Минерва. Так в руки Минервы попадает некий артефакт, который превращает её в дикую, кровожадную и неуправляемую женщину-кошку — Гепарду. Вне себя от ярости она начинает охоту за Лордом, по чьей вине и превратилась в монстра.

    Страна: США, Великобритания, Испания
    Студия: Atlas Entertainment, DC Comics, DC Entertainment
    Продолжительность: 02:31:05
    Перевод: Профессиональный многоголосый | HDRezka Studio
    Файл
    Кодек: x.264
    Качество: WEB-DL 720p | IMAX Edition
    Видео: MPEG-4 AVC, 4000 Kбит/с, 1280x688, 23.976 кадр/с
    Аудио #1: Русский (АС3, 6 ch, 448 Кбит/с, 48.0 KHz) Профессиональный (многоголосый, закадровый) HDRezka Studio
    Аудио #2: Английский (E-AC3 JOC, 6 ch, 768 Кбит/с, 48.0 KHz)
    Субтитры: Русские (Forced, Full (FOCS), английские

    MediaInfo

    Источник: Wonder.Woman.1984.2020.IMAX.720p.AMZN.WEB-DL.DDP5.1.Atmos.x264-NTG
    General
    Unique ID : 253354537876266965048332915897901321221 (0xBE9A4F21746BC2699AB7F425C85D0C05)
    Complete name : Wonder.Woman.1984.2020.IMAX.AMZN.WEB-DL.720p.mkv
    Format : Matroska
    Format version : Version 4
    File size : 5.42 GiB
    Duration : 2 h 31 min
    Overall bit rate : 5 136 kb/s
    Encoded date : UTC 2020-12-30 00:04:12
    Writing application : mkvmerge v7.1.0 ('Good Love') 64bit built on Jul 27 2014 13:06:55
    Writing library : libebml v1.3.0 + libmatroska v1.4.1
    Video
    ID : 1
    Format : AVC
    Format/Info : Advanced Video Codec
    Format profile : High@L3.1
    Format settings : CABAC / 4 Ref Frames
    Format settings, CABAC : Yes
    Format settings, Reference fra : 4 frames
    Codec ID : V_MPEG4/ISO/AVC
    Duration : 2 h 31 min
    Bit rate mode : Constant
    Bit rate : 4 000 kb/s
    Width : 1 280 pixels
    Height : 688 pixels
    Display aspect ratio : 1.890
    Original display aspect ratio : 1.85:1
    Frame rate mode : Constant
    Frame rate : 23.976 (24000/1001) FPS
    Color space : YUV
    Chroma subsampling : 4:2:0
    Bit depth : 8 bits
    Scan type : Progressive
    Bits/(Pixel*Frame) : 0.189
    Stream size : 4.13 GiB (76%)
    Language : English
    Default : Yes
    Forced : No
    Color range : Limited
    Color primaries : BT.709
    Transfer characteristics : BT.709
    Matrix coefficients : BT.709
    Audio #1
    ID : 2
    Format : AC-3
    Format/Info : Audio Coding 3
    Commercial name : Dolby Digital
    Codec ID : A_AC3
    Duration : 2 h 31 min
    Bit rate mode : Constant
    Bit rate : 448 kb/s
    Channel(s) : 6 channels
    Channel layout : L R C LFE Ls Rs
    Sampling rate : 48.0 kHz
    Frame rate : 31.250 FPS (1536 SPF)
    Compression mode : Lossy
    Stream size : 484 MiB (9%)
    Title : MVO | HDRezka Studio
    Language : Russian
    Service kind : Complete Main
    Default : Yes
    Forced : No
    Audio #2
    ID : 3
    Format : E-AC-3 JOC
    Format/Info : Enhanced AC-3 with Joint Object Coding
    Commercial name : Dolby Digital Plus with Dolby Atmos
    Codec ID : A_EAC3
    Duration : 2 h 31 min
    Bit rate mode : Constant
    Bit rate : 768 kb/s
    Channel(s) : 6 channels
    Channel layout : L R C LFE Ls Rs
    Sampling rate : 48.0 kHz
    Frame rate : 31.250 FPS (1536 SPF)
    Compression mode : Lossy
    Delay relative to video : 24 ms
    Stream size : 830 MiB (15%)
    Language : English
    Service kind : Complete Main
    Default : No
    Forced : No
    Complexity index : 16
    Number of dynamic objects : 15
    Bed channel count : 1 channel
    Bed channel configuration : LFE
    Text #1
    ID : 4
    Format : UTF-8
    Codec ID : S_TEXT/UTF8
    Codec ID/Info : UTF-8 Plain Text
    Duration : 2 h 15 min
    Bit rate : 1 b/s
    Count of elements : 42
    Stream size : 1.91 KiB (0%)
    Title : Forced
    Language : Russian
    Default : Yes
    Forced : No
    Text #2
    ID : 5
    Format : UTF-8
    Codec ID : S_TEXT/UTF8
    Codec ID/Info : UTF-8 Plain Text
    Duration : 2 h 26 min
    Bit rate : 79 b/s
    Count of elements : 1841
    Stream size : 85.5 KiB (0%)
    Title : Full - Focs
    Language : Russian
    Default : No
    Forced : No
    Text #3
    ID : 6
    Format : UTF-8
    Codec ID : S_TEXT/UTF8
    Codec ID/Info : UTF-8 Plain Text
    Duration : 2 h 26 min
    Bit rate : 46 b/s
    Count of elements : 1862
    Stream size : 50.2 KiB (0%)
    Language : English
    Default : No
    Forced : No
    Text #4
    ID : 7
    Format : UTF-8
    Codec ID : S_TEXT/UTF8
    Codec ID/Info : UTF-8 Plain Text
    Duration : 2 h 26 min
    Bit rate : 55 b/s
    Count of elements : 2175
    Stream size : 59.6 KiB (0%)
    Title : SDH
    Language : English
    Default : No
    Forced : No

    Скриншоты

    Показать сообщения:    
    Главная  Кинофильмы  Зарубежные кинофильмы

    Текущее время: 26-Янв 00:19

    Часовой пояс: UTC + 5



    Вы не можете начинать темы
    Вы не можете отвечать на сообщения
    Вы не можете редактировать свои сообщения
    Вы не можете удалять свои сообщения
    Вы не можете голосовать в опросах
    Вы не можете прикреплять файлы к сообщениям
    Вы не можете скачивать файлы