Уважаемые гости сайта! Добро Пожаловать на наш торрент трекер,где Вы можете бесплатно скачать любой Софт,Фильмы,Музыку и многое другое! А так же постоянно ведется набор модераторов и релизеров. Зарегистрируйтесь сейчас, чтобы получить доступ ко всем функциям. После регистрации или входа на сайт вы сможете создавать темы, отвечать на сообщения и скачивать файлы.

До нового года осталось

Навигация по Торрент раздачам и Форум и Стол заказов и Группы

 Мулан / Mulan (Ники Каро / Niki Caro) [2020, Драма, боевик, фэнтези, BDRip 1080p]

Главная  Мультфильмы  Зарубежные мультфильмы  HD
Статистика раздачи
Скачал: [ 1 ]
Сегодня идет свободное скачивание без начисления Download
 
     
 
 
 
Автор Сообщение
  • NuRKHoNoFF ®
  • Не в сети

    Автор темы

  • 5064
  • Пол: Мужской

  • Стаж: 1 год 11 месяцев

  • Сообщений: 197

  • Откуда: Каттакурган

  • Провайдер: Skyline Skyline

  • Карма: 610


  • Нет нарушения:

  • Награды: 17 (Подробнее)
    Admin (Количество: 1) Активный релизер 1 (Количество: 1) Активный релизер 2 (Количество: 1) Активный релизер 3 (Количество: 1) Активный релизер 4 (Количество: 1)
  • Создавать темы 01-Ноя-2020 00:29

    Мулан / Mulan -Год выпуска: 2020
    Страна: США, Канада, Гонконг
    Жанр: Драма, боевик, фэнтези
    Продолжительность: 01:55:08
    Перевод: Профессиональный (многоголосый, закадровый) [HDRezka Studio]-Субтитры: Русские, английские-Режиссер: Ники Каро / Niki Caro-В ролях: Ифэй Лю, Донни Йен, Гун Ли, Джет Ли, Джейсон Скотт Ли, Йосон Ань, Ци Ма, Розалинд Чао, Чжэн Пэйпэй, Сюзанна Тан-Описание: Дочь Чинь похищена. Чтобы вернуть ее целой и невредимой, Чинь должна выполнить несколько опасных миссий, ради которых она собирает отряд наемников. С одним из них, таинственным человеком по имени Куан, у Чинь завязываются близкие отношения. Но чем ближе заветная для Чинь цель, тем более запутанными становятся их отношения с Куаном — она понимает, что Куан не так прост, как кажется на первый взгляд, и что в этой истории у него есть свой собственный интерес.
    - -Качество: BDRip 1080p
    Формат: MKV
    Видео: AVC, 2500 Kb/s, 1920x804
    Аудио №1: АС3, 6 ch, 448 Кбит/с | RUS
    Аудио №2: AAC, 6 ch, 224 Кбит/с | ENG-

    MediaInfo

    General
    Unique ID : 79041224191027424062484217953301599738 (0x3B76C93AA44B4104B6297AE812A095FA)
    Complete name : Mulan.2020.BluRay.1080p.ELEKTRI4KA.UNIONGANG.mkv
    Format : Matroska
    Format version : Version 4
    File size : 2.55 GiB
    Duration : 1 h 55 min
    Overall bit rate : 3 174 kb/s
    Movie name : Mulan.2020.BluRay.1080p.ELEKTRI4KA.UNIONGANG
    Encoded date : UTC 2020-10-31 18:52:21
    Writing application : mkvmerge v45.0.0 ('Heaven in Pennies') 64-bit
    Writing library : libebml v1.3.10 + libmatroska v1.5.2
    Video
    ID : 1
    Format : AVC
    Format/Info : Advanced Video Codec
    Format profile : High@L4.1
    Format settings : CABAC / 4 Ref Frames
    Format settings, CABAC : Yes
    Format settings, Reference : 4 frames
    Codec ID : V_MPEG4/ISO/AVC
    Duration : 1 h 55 min
    Bit rate : 2 500 kb/s
    Width : 1 920 pixels
    Height : 804 pixels
    Display aspect ratio : 2.40:1
    Frame rate mode : Constant
    Frame rate : 23.976 (23976/1000) FPS
    Color space : YUV
    Chroma subsampling : 4:2:0
    Bit depth : 8 bits
    Scan type : Progressive
    Bits/(Pixel*Frame) : 0.068
    Stream size : 2.01 GiB (79%)
    Title : ELEKTRI4KA.UNIONGANG
    Writing library : x264 core 152 r2851M ba24899
    Encoding settings : cabac=1 / ref=4 / deblock=1:-1:-1 / analyse=0x3:0x113 / me=umh / subme=9 / psy=1 / psy_rd=1.00:0.15 / mixed_ref=1 / me_range=24 / chroma_me=1 / trellis=2 / 8x8dct=1 / cqm=0 / deadzone=21,11 / fast_pskip=1 / chroma_qp_offset=-3 / threads=16 / lookahead_threads=4 / sliced_threads=0 / nr=0 / decimate=1 / interlaced=0 / bluray_compat=0 / constrained_intra=0 / bframes=3 / b_pyramid=2 / b_adapt=2 / b_bias=0 / direct=3 / weightb=1 / open_gop=0 / weightp=2 / keyint=250 / keyint_min=25 / scenecut=40 / intra_refresh=0 / rc_lookahead=50 / rc=2pass / mbtree=1 / bitrate=2500 / ratetol=1.0 / qcomp=0.60 / qpmin=0 / qpmax=69 / qpstep=4 / cplxblur=20.0 / qblur=0.5 / vbv_maxrate=31250 / vbv_bufsize=31250 / nal_hrd=none / filler=0 / ip_ratio=1.40 / aq=3:1.00
    Default : Yes
    Forced : No
    Audio #1
    ID : 2
    Format : AC-3
    Format/Info : Audio Coding 3
    Commercial name : Dolby Digital
    Codec ID : A_AC3
    Duration : 1 h 55 min
    Bit rate mode : Constant
    Bit rate : 448 kb/s
    Channel(s) : 6 channels
    Channel layout : L R C LFE Ls Rs
    Sampling rate : 48.0 kHz
    Frame rate : 31.250 FPS (1536 SPF)
    Compression mode : Lossy
    Delay relative to video : -43 ms
    Stream size : 369 MiB (14%)
    Title : MVO ELETRI4KA.UNIONGANG
    Language : Russian
    Service kind : Complete Main
    Default : Yes
    Forced : No
    Audio #2
    ID : 3
    Format : AAC LC
    Format/Info : Advanced Audio Codec Low Complexity
    Codec ID : A_AAC-2
    Duration : 1 h 55 min
    Bit rate : 224 kb/s
    Channel(s) : 6 channels
    Channel layout : C L R Ls Rs LFE
    Sampling rate : 48.0 kHz
    Frame rate : 46.875 FPS (1024 SPF)
    Compression mode : Lossy
    Delay relative to video : -43 ms
    Stream size : 185 MiB (7%)
    Title : ELEKTRI4KA.UNIONGANG
    Language : English
    Default : No
    Forced : No
    Text #1
    ID : 4
    Format : UTF-8
    Codec ID : S_TEXT/UTF8
    Codec ID/Info : UTF-8 Plain Text
    Duration : 1 h 37 min
    Bit rate : 0 b/s
    Count of elements : 9
    Stream size : 420 Bytes (0%)
    Title : Forced
    Language : Russian
    Default : No
    Forced : No
    Text #2
    ID : 5
    Format : UTF-8
    Codec ID : S_TEXT/UTF8
    Codec ID/Info : UTF-8 Plain Text
    Duration : 1 h 44 min
    Bit rate : 51 b/s
    Count of elements : 850
    Stream size : 39.0 KiB (0%)
    Title : Full
    Language : Russian
    Default : No
    Forced : No
    Text #3
    ID : 6
    Format : UTF-8
    Codec ID : S_TEXT/UTF8
    Codec ID/Info : UTF-8 Plain Text
    Duration : 1 h 50 min
    Bit rate : 30 b/s
    Count of elements : 921
    Stream size : 24.5 KiB (0%)
    Language : English
    Default : No
    Forced : No

    _________________
    Показать сообщения:    
    Главная  Мультфильмы  Зарубежные мультфильмы  HD

    Текущее время: 04-Дек 15:41

    Часовой пояс: UTC + 5



    Вы не можете начинать темы
    Вы не можете отвечать на сообщения
    Вы не можете редактировать свои сообщения
    Вы не можете удалять свои сообщения
    Вы не можете голосовать в опросах
    Вы не можете прикреплять файлы к сообщениям
    Вы не можете скачивать файлы