Токийский гуль / Tokyo Ghoul [TV 1-4 + OVA] (Сюхэй Морита, Сойти Симада, Одахиро Ватанабэ) [2015-2018, Мистика, приключения, психология, ужасы, BDRip] MVO (Zone Vision), DVO (AniDUB) :: UZTOR.PW Лучший трекер в зоне TAS-IX!
 
Уважаемые гости сайта! Добро Пожаловать на наш торрент трекер,где Вы можете бесплатно скачать любой Софт,Фильмы,Музыку и многое другое! А так же постоянно ведется набор модераторов и релизеров. Зарегистрируйтесь сейчас, чтобы получить доступ ко всем функциям. После регистрации или входа на сайт вы сможете создавать темы, отвечать на сообщения и скачивать файлы.

Навигация по Торрент раздачам и Форум и Стол заказов и Группы



 Токийский гуль / Tokyo Ghoul [TV 1-4 + OVA] (Сюхэй Морита, Сойти Симада, Одахиро Ватанабэ) [2015-2018, Мистика, приключения, психология, ужасы, BDRip] MVO (Zone Vision), DVO (AniDUB)

Главная  Аниме  Сериалы  Аниме Сериалы
Статистика раздачи
Нет
 
     
 
 
 
Автор Сообщение
  • Создавать темы 10-Окт-2020 20:39

    Токийский гуль / Tokyo Ghoul-- Год выхода: 2014-2018
    Страна: Япония
    Студия: Studio Pierrot
    Жанр: мистика, приключения, психология, ужасы
    Продолжительность: 50 x ~ 00:25:00
    Перевод: Профессиональный (Многоголосый закадровый) Zone Vision (по заказу т/к 2x2) S01-04
    Перевод: Любительский двухголосый(муж./жен.) JAM & Nika Lenina (Anidub) OVA 01-02
    Перевод: Оригинал + Субтитры
    Возрастное ограничение: 18+ [Контент не для детей]-Режиссер: Сюхэй Морита, Сойти Симада, Одахиро Ватанабэ
    Автор оригинала: Исида Суи-Описание: Раса гулей существует с незапамятных времен. Ее представители вовсе не против людей, они их даже любят – преимущественно в сыром виде. Любители человечины внешне неотличимы от нас, сильны, быстры и живучи – но их мало, потому гули выработали строгие правила охоты и маскировки, а нарушителей наказывают сами или по-тихому сдают борцам с нечистью. В век науки люди знают про гулей, но как говорится, привыкли. Власти не считают людоедов угрозой, более того, рассматривают их как идеальную основу для создания суперсолдат. Эксперименты идут уже давно…
    Ничего этого не ведал Кэн Канэки, робкий и невзрачный токийский первокурсник, безнадежно влюбленный в красавицу-интеллектуалку Ризэ, частую гостью в кафе «Место встречи», где парень подрабатывает официантом. Не думал Кэн, что скоро самому придется стать гулем, и многие знакомые предстанут в неожиданном свете. Главному герою предстоит мучительный поиск нового пути, ибо он понял, что люди и гули похожи: просто одни друг друга жрут в прямом смысле, другие – в переносном. Правда жизни жестока, переделать ее нельзя, и силен тот, кто не отворачивается. А дальше уж как-нибудь!-Качество: BDRip
    Формат: AVI
    Видео: XviD 720x400 (16:9), 23.976 fps, 1 411 kb/s (0.204 bit/pixel)
    Аудио №1: AC-3, 48,0 КГц, 2 ch, 192 Кбит/сек, CBR | | Zone Vision
    Аудио №1.1: AC-3, 48,0 КГц, 2 ch, 192 Кбит/сек, CBR | | Anidub
    Аудио №2: AC-3, 48,0 КГц, 2 ch, 192 Кбит/сек, CBR | | Оригинал
    Субтитры: Русские (полные)--

    Хронология

    #1 >>>Токийский гуль [ТВ-1] - ТВ (12 эп.), адаптация манги, 2014
    #2 Токийский гуль [ТВ-2] - ТВ (12 эп.), продолжение, 2015
    #3 Токийский гуль: Джек - OVA (2 эп.), spinoff (ответвление сюжета), 2015
    #4 Токийский гуль [ТВ-3] - ТВ (12 эп.), продолжение, 2018
    #5 Токийский гуль [ТВ-4] - ТВ (12 эп.), продолжение, 2018

    MediaInfo

    General
    Complete name : [Deadmau- RAWS] Tokyo.Ghoul.2014.S01.RUS.JAP.BDRip.Deadmauvlad.Ep.01.avi
    Format : AVI
    Format/Info : Audio Video Interleave
    File size : 337 MiB
    Duration : 26 min 4 s
    Overall bit rate : 1 809 kb/s
    Director : Encoder by Deadmauvlad
    Writing application : VirtualDubMod 1.5.10.3 | www.virtualdub-fr.org || (build 2550/release)
    Writing library : VirtualDubMod build 2550/release
    Copyright : Encoder by Deadmauvlad
    Video
    ID : 0
    Format : MPEG-4 Visual
    Format profile : Advanced Simple@L5
    Format settings : BVOP1 / Custom Matrix
    Format settings, BVOP : 1
    Format settings, QPel : No
    Format settings, GMC : No warppoints
    Format settings, Matrix : Custom
    Codec ID : XVID
    Codec ID/Hint : XviD
    Duration : 26 min 4 s
    Bit rate : 1 411 kb/s
    Width : 720 pixels
    Height : 400 pixels
    Display aspect ratio : 16:9
    Frame rate : 23.976 (24000/1001) FPS
    Color space : YUV
    Chroma subsampling : 4:2:0
    Bit depth : 8 bits
    Scan type : Progressive
    Compression mode : Lossy
    Bits/(Pixel*Frame) : 0.204
    Stream size : 263 MiB (78%)
    Writing library : XviD 73
    Audio #1
    ID : 1
    Format : AC-3
    Format/Info : Audio Coding 3
    Commercial name : Dolby Digital
    Codec ID : 2000
    Duration : 26 min 4 s
    Bit rate mode : Constant
    Bit rate : 192 kb/s
    Channel(s) : 2 channels
    Channel layout : L R
    Sampling rate : 48.0 kHz
    Frame rate : 31.250 FPS (1536 SPF)
    Bit depth : 16 bits
    Compression mode : Lossy
    Stream size : 35.8 MiB (11%)
    Alignment : Split accross interleaves
    Interleave, duration : 42 ms (1.00 video frame)
    Interleave, preload duration : 500 ms
    Audio #2
    ID : 2
    Format : AC-3
    Format/Info : Audio Coding 3
    Commercial name : Dolby Digital
    Codec ID : 2000
    Duration : 26 min 4 s
    Bit rate mode : Constant
    Bit rate : 192 kb/s
    Channel(s) : 2 channels
    Channel layout : L R
    Sampling rate : 48.0 kHz
    Frame rate : 31.250 FPS (1536 SPF)
    Bit depth : 16 bits
    Compression mode : Lossy
    Stream size : 35.8 MiB (11%)
    Alignment : Split accross interleaves
    Interleave, duration : 42 ms (1.00 video frame)
    Interleave, preload duration : 500 ms

    _________________
    Показать сообщения:    
    Главная  Аниме  Сериалы  Аниме Сериалы

    Текущее время: 26-Окт 08:32

    Часовой пояс: UTC + 5



    Вы не можете начинать темы
    Вы не можете отвечать на сообщения
    Вы не можете редактировать свои сообщения
    Вы не можете удалять свои сообщения
    Вы не можете голосовать в опросах
    Вы не можете прикреплять файлы к сообщениям
    Вы не можете скачивать файлы