Любимец принцесс / Princess Lover [TV-1] [1-12 из 12 + SP] (Канадзава Хиромицу) [2009, Романтика, этти, BDRip] AVO (ZENDOS) | Без Цензуры :: UZTOR.PW Лучший трекер в зоне TAS-IX!
 
Уважаемые гости сайта! Добро Пожаловать на наш торрент трекер,где Вы можете бесплатно скачать любой Софт,Фильмы,Музыку и многое другое! А так же постоянно ведется набор модераторов и релизеров. Зарегистрируйтесь сейчас, чтобы получить доступ ко всем функциям. После регистрации или входа на сайт вы сможете создавать темы, отвечать на сообщения и скачивать файлы.

Навигация по Торрент раздачам и Форум и Стол заказов и Группы



 Любимец принцесс / Princess Lover [TV-1] [1-12 из 12 + SP] (Канадзава Хиромицу) [2009, Романтика, этти, BDRip] AVO (ZENDOS) | Без Цензуры

Главная  Аниме  Сериалы  Аниме Сериалы
Статистика раздачи
Скачал: [ 2 ]
 
     
 
 
 
Автор Сообщение
  • Создавать темы 07-Окт-2020 23:37

    Любимец принцесс / Princess Lover-- Год выпуска: 2009
    Страна: Япония
    Студия: GoHands
    Жанр: романтика, этти
    Продолжительность: 12 x ~00:24:00 + Спешелы (Общая продолжительность 01:13:10 = 18 SP)
    Озвучивание: Любительский одноголосный закадровый [ZENDOS]-Режиссёр: Канадзава Хиромицу-В ролях: Такума Тэрасима, Мэгуми Тоёгути, Рёка Юдзуки-Описание: Арима Теппей потерял своих родителей в автокатастрофе. Его усыновляет дедушка, для того, чтобы однажды он возглавил гигантскую корпорацию Иссина "Arima Group Corporation".
    Но сначала парню придется закончить академию, где учатся только дети монархов и мировых знаменитостей. У него начинается новая жизнь, ведь три девушки уже положили на него глаз: супермодель, принцесса и девушка-рыцарь. Не говоря уже о собственной служанке..-Качество: BDRip
    Формат: AVI
    Видео: XviD, 704x400 (16:9), 23.976 fps, 1656 Кбит/сек (0.245 bit/pixel)
    Аудио №1: AC-3, 48,0 КГц, 2 ch, 192 Кбит/сек, CBR | | ZENDOS
    Аудио №2: AC-3, 48,0 КГц, 2 ch, 192 Кбит/сек, CBR | | Оригинал--

    MediaInfo

    Общее
    Полное имя : D:АнимеDeadmau-RAWS] Любимец.Принцесс.S01.2009.L1.BDRip.Без.Цензуры.Deadmauvlad.Ep.01.avi
    Формат : AVI
    Формат/Информация : Audio Video Interleave
    Размер файла : 348 Мбайт
    Продолжительность : 23 м. 42 с.
    Общий поток : 2054 Кбит/сек
    Название фильма : [Deadmau-RAWS] Любимец.принцесс.S01.2009.L1.Zendos.BDRip.Без.Цензуры.Deadmauvlad.Ep.01
    Режиссёр : Encoder by Deadmauvlad
    Жанр : романтика, этти
    Программа кодирования : VirtualDubMod 1.5.10.3 | www.virtualdub-fr.org || (build 2550/release)
    Формат оригинала/Имя : Аниме
    Авторское право : Encoder by Deadmauvlad
    Примечание : Encoder by Deadmauvlad
    Видео
    Идентификатор : 0
    Формат : MPEG-4 Visual
    Профиль формата : Advanced Simple@L5
    Настройки формата : BVOP1 / Custom Matrix
    Параметр BVOP формата : 1
    Параметр QPel формата : Нет
    Параметр GMC формата : Без точки перехода
    Параметр матрицы формата : Выборочная
    Идентификатор кодека : XVID
    Идентификатор кодека/Подсказка : XviD
    Продолжительность : 23 м. 42 с.
    Битрейт : 1656 Кбит/сек
    Ширина : 704 пикселя
    Высота : 400 пикселей
    Соотношение сторон : 16:9
    Частота кадров : 23,976 (24000/1001) кадра/сек
    Цветовое пространство : YUV
    Субдискретизация насыщенности : 4:2:0
    Битовая глубина : 8 бит
    Тип развёртки : Прогрессивная
    Метод сжатия : С потерями
    Бит/(Пиксели*Кадры) : 0.245
    Размер потока : 281 Мбайт (81%)
    Библиотека кодирования : XviD 73
    Аудио #1
    Идентификатор : 1
    Формат : AC-3
    Формат/Информация : Audio Coding 3
    Коммерческое название : Dolby Digital
    Идентификатор кодека : 2000
    Продолжительность : 23 м. 42 с.
    Вид битрейта : Постоянный
    Битрейт : 192 Кбит/сек
    Каналы : 2 канала
    Channel layout : L R
    Частота : 48,0 КГц
    Частота кадров : 31,250 кадров/сек (1536 SPF)
    Битовая глубина : 16 бит
    Метод сжатия : С потерями
    Размер потока : 32,5 Мбайт (9%)
    Выравнивание : Разделение по промежуткам
    Продолжительность промежутка : 42 мс. (1,00 видеокадр)
    Время предзагрузки промежутка : 500 мс.
    Аудио #2
    Идентификатор : 2
    Формат : AC-3
    Формат/Информация : Audio Coding 3
    Коммерческое название : Dolby Digital
    Идентификатор кодека : 2000
    Продолжительность : 23 м. 42 с.
    Вид битрейта : Постоянный
    Битрейт : 192 Кбит/сек
    Каналы : 2 канала
    Channel layout : L R
    Частота : 48,0 КГц
    Частота кадров : 31,250 кадров/сек (1536 SPF)
    Битовая глубина : 16 бит
    Метод сжатия : С потерями
    Размер потока : 32,5 Мбайт (9%)
    Выравнивание : Разделение по промежуткам
    Продолжительность промежутка : 42 мс. (1,00 видеокадр)
    Время предзагрузки промежутка : 500 мс.

    _________________
    Показать сообщения:    
    Главная  Аниме  Сериалы  Аниме Сериалы

    Текущее время: 26-Окт 08:23

    Часовой пояс: UTC + 5



    Вы не можете начинать темы
    Вы не можете отвечать на сообщения
    Вы не можете редактировать свои сообщения
    Вы не можете удалять свои сообщения
    Вы не можете голосовать в опросах
    Вы не можете прикреплять файлы к сообщениям
    Вы не можете скачивать файлы