Дневник памяти / The Notebook (Ник Кассаветис) [2004, драма, мелодрама, BDRip 1080p] | HEVC 10 bit :: UZTOR.PW Лучший трекер в зоне TAS-IX!
 
Уважаемые гости сайта! Добро Пожаловать на наш торрент трекер,где Вы можете бесплатно скачать любой Софт,Фильмы,Музыку и многое другое! А так же постоянно ведется набор модераторов и релизеров. Зарегистрируйтесь сейчас, чтобы получить доступ ко всем функциям. После регистрации или входа на сайт вы сможете создавать темы, отвечать на сообщения и скачивать файлы.

Навигация по Торрент раздачам и Форум и Стол заказов и Группы



 Дневник памяти / The Notebook (Ник Кассаветис) [2004, драма, мелодрама, BDRip 1080p] | HEVC 10 bit

Главная  Кинофильмы  Кинофильмы (HEVC)  Фильмы 2000-2010 годов
Статистика раздачи
Нет
 
     
 
 
 
Автор Сообщение
  • braga ®
  • Не в сети

    Автор темы

  • 7355
  • Пол: Мужской

  • Стаж: 1 месяц 9 дней

  • Сообщений: 1

  • Провайдер: FiberNet FiberNet

  • Карма: 0


  • Нет нарушения:

  • Награды: Нет
  • Создавать темы 21-Сен-2020 09:34

    Дневник памяти | The Notebook
    Год выпуска: 2004
    Страна: США
    Жанр: драма, мелодрама
    Продолжительность: 02:03:48
    Cубтитры: английские
    Перевод: Профессиональный (дублированный)
    Доп. инфо о переводе: Лицензия
    Режиссер: Ник Кассаветис
    В ролях: Райан Гослинг, Рэйчел МакАдамс, Джеймс Гарнер, Джина Роулэндс, Сэм Шепард, Джоан Аллен, Дэвид Торнтон, Тим Айви, Старлетта Дюпуа, Энтони-Майкл К. Томас
    Описание: Трогательная история любви, прочитанная пожилым мужчиной из старой записной книжки женщине в доме престарелых. Это история отношений юноши и девушки из разных социальных слоев, живших в Северной Каролине. Ной и Элли провели вместе незабываемое лето, пока их не разделили вначале родители, а затем Вторая мировая война.
    После войны все изменилось: Элли обручилась с удачливым бизнесменом, а Ной жил наедине со своими воспоминаниями в старинном доме, который ему удалось отреставрировать. Когда Элли прочла об этом в местной газете, она поняла: ей нужно найти его и решить наконец судьбу их любви…
    Качество видео: BDRip
    Формат видео: MKV
    Видео кодек: AVC
    Аудио кодек: AC3
    Видео: HEVC/x.265, 1920x816, 23.976FPS, ~6812 Kbps
    Аудио: AC3, 6 ch, 448 Kbps - Русский

    MediaInfo

    General
    Unique ID : 238258669176167845446514320219369704373 (0xB33EF35716CBB129C55155A1F5AD0BB5)
    Complete name : The Notebook (2004) BDRip 1080p H.265 [RUS_UKR_ENG] [HEVC-CLUB].mkv
    Format : Matroska
    Format version : Version 4
    File size : 7.56 GiB
    Duration : 2 h 3 min
    Overall bit rate : 8 736 kb/s
    Movie name : Дневник памяти / Щоденник пам'яті / The Notebook (2004)
    Encoded date : UTC 2020-09-10 14:33:59
    Writing application : mkvmerge v20.0.0 ('I Am The Sun') 64-bit
    Writing library : libebml v1.3.5 + libmatroska v1.4.8
    Cover : Yes
    Attachments : Cover
    Video
    ID : 1
    Format : HEVC
    Format/Info : High Efficiency Video Coding
    Format profile : Main 10@L5.1@High
    Codec ID : V_MPEGH/ISO/HEVC
    Duration : 2 h 3 min
    Bit rate : 6 812 kb/s
    Width : 1 920 pixels
    Height : 816 pixels
    Display aspect ratio : 2.35:1
    Frame rate mode : Constant
    Frame rate : 23.976 (24000/1001) FPS
    Color space : YUV
    Chroma subsampling : 4:2:0
    Bit depth : 10 bits
    Bits/(Pixel*Frame) : 0.181
    Stream size : 5.89 GiB (78%)
    Title : Дневник памяти / Щоденник пам'яті / The Notebook (2004)
    Writing library : x265 3.2+5-354901970679:[Windows][clang 8.0.1][64 bit] 10bit
    Encoding settings : cpuid=1111039 / frame-threads=13 / numa-pools=12 / wpp / no-pmode / no-pme / no-psnr / no-ssim / log-level=3 / input-csp=1 / input-res=1920x816 / interlace=0 / total-frames=0 / level-idc=51 / high-tier=1 / uhd-bd=0 / ref=5 / allow-non-conformance / no-repeat-headers / annexb / no-aud / no-hrd / info / hash=0 / no-temporal-layers / open-gop / min-keyint=24 / keyint=240 / gop-lookahead=0 / bframes=16 / b-adapt=2 / b-pyramid / bframe-bias=0 / rc-lookahead=60 / lookahead-slices=5 / scenecut=40 / radl=0 / no-splice / no-intra-refresh / ctu=64 / min-cu-size=8 / rect / amp / max-tu-size=32 / tu-inter-depth=4 / tu-intra-depth=4 / limit-tu=0 / rdoq-level=2 / dynamic-rd=0.00 / no-ssim-rd / signhide / no-tskip / nr-intra=0 / nr-inter=0 / no-constrained-intra / no-strong-intra-smoothing / max-merge=3 / limit-refs=1 / no-limit-modes / me=3 / subme=7 / merange=57 / temporal-mvp / no-frame-dup / no-hme / weightp / weightb / no-analyze-src-pics / deblock=-3:-3 / no-sao / no-sao-non-deblock / rd=6 / selective-sao=0 / early-skip / rskip / no-fast-intra / no-tskip-fast / no-cu-lossless / b-intra / no-splitrd-skip / rdpenalty=0 / psy-rd=2.00 / psy-rdoq=1.00 / no-rd-refine / no-lossless / cbqpoffs=0 / crqpoffs=0 / rc=crf / crf=20.0 / qcomp=0.65 / qpstep=4 / stats-write=0 / stats-read=0 / vbv-maxrate=50000 / vbv-bufsize=50000 / vbv-init=0.9 / crf-max=30.0 / crf-min=0.0 / ipratio=1.40 / pbratio=1.30 / aq-mode=1 / aq-strength=1.00 / no-cutree / zone-count=0 / no-strict-cbr / qg-size=32 / no-rc-grain / qpmax=69 / qpmin=0 / no-const-vbv / sar=1 / overscan=0 / videoformat=5 / range=0 / colorprim=1 / transfer=1 / colormatrix=1 / chromaloc=0 / display-window=0 / cll=0,0 / min-luma=0 / max-luma=1023 / log2-max-poc-lsb=8 / vui-timing-info / vui-hrd-info / slices=1 / no-opt-qp-pps / no-opt-ref-list-length-pps / no-multi-pass-opt-rps / scenecut-bias=0.05 / no-opt-cu-delta-qp / no-aq-motion / no-hdr / no-hdr-opt / no-dhdr10-opt / no-idr-recovery-sei / analysis-reuse-level=5 / scale-factor=0 / refine-intra=0 / refine-inter=0 / refine-mv=1 / refine-ctu-distortion=0 / no-limit-sao / ctu-info=0 / no-lowpass-dct / refine-analysis-type=0 / copy-pic=1 / max-ausize-factor=1.0 / no-dynamic-refine / no-single-sei / no-hevc-aq / no-svt / no-field / qp-adaptation-range=1.00
    Default : Yes
    Forced : No
    Color range : Limited
    Color primaries : BT.709
    Transfer characteristics : BT.709
    Matrix coefficients : BT.709
    Audio #1
    ID : 2
    Format : AC-3
    Format/Info : Audio Coding 3
    Commercial name : Dolby Digital
    Codec ID : A_AC3
    Duration : 2 h 3 min
    Bit rate mode : Constant
    Bit rate : 640 kb/s
    Channel(s) : 6 channels
    Channel layout : L R C LFE Ls Rs
    Sampling rate : 48.0 kHz
    Frame rate : 31.250 FPS (1536 SPF)
    Compression mode : Lossy
    Stream size : 567 MiB (7%)
    Title : AC3 / 5.1 Ch / 640 kbps / DUB / Blu-Ray
    Language : Russian
    Service kind : Complete Main
    Default : Yes
    Forced : Yes
    Audio #2
    ID : 3
    Format : AC-3
    Format/Info : Audio Coding 3
    Commercial name : Dolby Digital
    Codec ID : A_AC3
    Duration : 2 h 3 min
    Bit rate mode : Constant
    Bit rate : 448 kb/s
    Channel(s) : 6 channels
    Channel layout : L R C LFE Ls Rs
    Sampling rate : 48.0 kHz
    Frame rate : 31.250 FPS (1536 SPF)
    Compression mode : Lossy
    Stream size : 397 MiB (5%)
    Title : AC3 / 5.1 Ch / 448 kbps / MVO / ICTV
    Language : Ukrainian
    Service kind : Complete Main
    Default : No
    Forced : No
    Audio #3
    ID : 4
    Format : AC-3
    Format/Info : Audio Coding 3
    Commercial name : Dolby Digital
    Codec ID : A_AC3
    Duration : 2 h 3 min
    Bit rate mode : Constant
    Bit rate : 448 kb/s
    Channel(s) : 6 channels
    Channel layout : L R C LFE Ls Rs
    Sampling rate : 48.0 kHz
    Frame rate : 31.250 FPS (1536 SPF)
    Compression mode : Lossy
    Stream size : 397 MiB (5%)
    Title : AC3 / 5.1 Ch / 448 kbps / Original
    Language : English
    Service kind : Complete Main
    Default : No
    Forced : No
    Audio #4
    ID : 5
    Format : AC-3
    Format/Info : Audio Coding 3
    Commercial name : Dolby Digital
    Codec ID : A_AC3
    Duration : 2 h 3 min
    Bit rate mode : Constant
    Bit rate : 192 kb/s
    Channel(s) : 2 channels
    Channel layout : L R
    Sampling rate : 48.0 kHz
    Frame rate : 31.250 FPS (1536 SPF)
    Compression mode : Lossy
    Stream size : 170 MiB (2%)
    Title : AC3 / 2.0 Ch / 192 kbps / Original / Commentary 1
    Language : English
    Service kind : Complete Main
    Default : No
    Forced : No
    Audio #5
    ID : 6
    Format : AC-3
    Format/Info : Audio Coding 3
    Commercial name : Dolby Digital
    Codec ID : A_AC3
    Duration : 2 h 3 min
    Bit rate mode : Constant
    Bit rate : 192 kb/s
    Channel(s) : 2 channels
    Channel layout : L R
    Sampling rate : 48.0 kHz
    Frame rate : 31.250 FPS (1536 SPF)
    Compression mode : Lossy
    Stream size : 170 MiB (2%)
    Title : AC3 / 2.0 Ch / 192 kbps / Original / Commentary 2
    Language : English
    Service kind : Complete Main
    Default : No
    Forced : No
    Text #1
    ID : 7
    Format : UTF-8
    Codec ID : S_TEXT/UTF8
    Codec ID/Info : UTF-8 Plain Text
    Duration : 1 h 57 min
    Bit rate : 77 b/s
    Count of elements : 1284
    Stream size : 67.3 KiB (0%)
    Title : Full
    Language : Russian
    Default : Yes
    Forced : No
    Text #2
    ID : 8
    Format : UTF-8
    Codec ID : S_TEXT/UTF8
    Codec ID/Info : UTF-8 Plain Text
    Duration : 1 h 54 min
    Bit rate : 58 b/s
    Count of elements : 1642
    Stream size : 49.2 KiB (0%)
    Title : Full
    Language : English
    Default : No
    Forced : No
    Text #3
    ID : 9
    Format : UTF-8
    Codec ID : S_TEXT/UTF8
    Codec ID/Info : UTF-8 Plain Text
    Duration : 2 h 0 min
    Bit rate : 56 b/s
    Count of elements : 1644
    Stream size : 50.2 KiB (0%)
    Title : SDH
    Language : English
    Default : No
    Forced : No
    Menu
    00:00:00.000 : :Main Titles
    00:03:17.489 : :No One Special
    00:05:08.683 : :First Sight
    00:10:40.849 : :The Late Show
    00:19:12.985 : :An Improbable Romance
    00:28:18.322 : :Dream House
    00:36:51.084 : :"He's Not for You"
    00:43:15.885 : :A World of Change
    00:54:04.408 : :Noah Returns
    00:57:43.794 : :Labor of Love
    01:01:35.734 : :The Past Returns
    01:04:52.764 : :Lost and Found
    01:13:22.524 : :Lost and Found
    01:15:19.473 : :Lake Outing
    01:21:30.552 : :Out in the Rain
    01:25:25.161 : :She's The One
    01:28:34.684 : :Morning Drive
    01:35:39.275 : :"What Do You Want?"
    01:42:19.300 : :Happily Ever After
    01:51:22.634 : :"I'll Never Leave You"
    01:58:24.264 : :End Credits

    Скриншоты


      -746

    Создавать темы 21-Сен-2020 13:13 (спустя 3 часа)

    Топик был перенесен из форума HD-AVC в форум Фильмы 2000-2010 годов


    -InVoKeR-
    Показать сообщения:    
    Главная  Кинофильмы  Кинофильмы (HEVC)  Фильмы 2000-2010 годов

    Текущее время: 30-Окт 15:01

    Часовой пояс: UTC + 5



    Вы не можете начинать темы
    Вы не можете отвечать на сообщения
    Вы не можете редактировать свои сообщения
    Вы не можете удалять свои сообщения
    Вы не можете голосовать в опросах
    Вы не можете прикреплять файлы к сообщениям
    Вы не можете скачивать файлы