Скуби-ду / Scoob! (Тони Червоне) [2020, Мультфильм, комедия, детектив, приключения, семейный, BDRip-HEVC 1080p] iTunes :: UZTOR.PW Лучший трекер в зоне TAS-IX!
 
Уважаемые гости сайта! Добро Пожаловать на наш торрент трекер,где Вы можете бесплатно скачать любой Софт,Фильмы,Музыку и многое другое! А так же постоянно ведется набор модераторов и релизеров. Зарегистрируйтесь сейчас, чтобы получить доступ ко всем функциям. После регистрации или входа на сайт вы сможете создавать темы, отвечать на сообщения и скачивать файлы.

Навигация по Торрент раздачам и Форум и Стол заказов и Группы



 Скуби-ду / Scoob! (Тони Червоне) [2020, Мультфильм, комедия, детектив, приключения, семейный, BDRip-HEVC 1080p] iTunes

Главная  Мультфильмы  Мультфильмы HEVC & (48-60 fps) и Мультсборники
Статистика раздачи
Нет
 
     
 
 
 
Автор Сообщение
  • Создавать темы 07-Сен-2020 05:30

    Скуби-ду / Scoob!--Год выхода: 2020
    Страна / Студия: США, Канада / Warner Bros., Warner Animation Group, Hanna-Barbera Productions
    Жанр: мультфильм, комедия, детектив, приключения, семейный
    Продолжительность: 01:33:46
    Перевод: Дублированный iTunes-Режиссер: Тони Червоне-Описание: Однажды мальчик по имени Шэгги встречает бездомного щенка, которому дает довольно странную кличку – Скуби-ду. Это становится началом не только настоящей дружбы, но и множества удивительных событий, в которых главные герои принимают самое активное участие. При поддержке школьников Дафни, Фредди и Вельмы приятели создают частное детективное агентство, мечтая помогать городским властям справляться с различными преступниками.-Качество: BDRip-HEVC 1080p
    Формат: MKV
    Видео: HEVC/H.265, 1920x804, ~6748 Kbps
    Аудио 1: AC3, 6 ch, 384 Kbps - Русский, дублированный (iTunes)
    Аудио 2: AC3, 6 ch, 640 Kbps - Английский
    Субтитры: Русские (форсированные, полные), английские (полные, SDH)--

    Mediainfo

    Общее
    Уникальный идентификатор : 94194739425974952238932193459053777669 (0x46DD3F3691F2C99453A2A9BF0CCFD305)
    Полное имя : R:Scoob! (2020) BDRip-HEVC 1080p.mkv
    Формат : Matroska
    Версия формата : Version 4 / Version 2
    Размер файла : 5,09 Гбайт
    Продолжительность : 1 ч. 33 м.
    Общий поток : 7774 Кбит/сек
    Название фильма : Scoob! (2020)
    Дата кодирования : UTC 2020-08-17 05:21:59
    Программа кодирования : mkvmerge v49.0.0 ('Sick Of Losing Soulmates') 64-bit
    Библиотека кодирования : libebml v1.4.0 + libmatroska v1.6.1
    Обложка : Yes
    Attachments : cover.jpg
    Видео
    Идентификатор : 1
    Формат : HEVC
    Формат/Информация : High Efficiency Video Coding
    Профиль формата : Main 10@L4.1@High
    Идентификатор кодека : V_MPEGH/ISO/HEVC
    Продолжительность : 1 ч. 33 м.
    Битрейт : 6748 Кбит/сек
    Ширина : 1920 пикселей
    Высота : 804 пикселя
    Соотношение сторон : 2,40:1
    Режим частоты кадров : Постоянный
    Частота кадров : 23,976 (24000/1001) кадра/сек
    Цветовое пространство : YUV
    Субдискретизация насыщенности : 4:2:0
    Битовая глубина : 10 бит
    Бит/(Пиксели*Кадры) : 0.182
    Размер потока : 4,42 Гбайт (87%)
    Библиотека кодирования : x265 3.3+1-g554c887ac:[Windows][MSVC 1924][64 bit] 10bit
    Настройки программы : cpuid=1111039 / frame-threads=3 / numa-pools=12 / wpp / no-pmode / no-pme / no-psnr / no-ssim / log-level=2 / input-csp=1 / input-res=1920x804 / interlace=0 / total-frames=128975 / level-idc=41 / high-tier=1 / uhd-bd=0 / ref=5 / no-allow-non-conformance / no-repeat-headers / annexb / no-aud / no-hrd / info / hash=0 / no-temporal-layers / open-gop / min-keyint=23 / keyint=240 / gop-lookahead=0 / bframes=10 / b-adapt=2 / b-pyramid / bframe-bias=0 / rc-lookahead=60 / lookahead-slices=4 / scenecut=40 / hist-scenecut=0 / radl=0 / no-splice / no-intra-refresh / ctu=32 / min-cu-size=8 / rect / amp / max-tu-size=32 / tu-inter-depth=4 / tu-intra-depth=4 / limit-tu=1 / rdoq-level=2 / dynamic-rd=0.00 / no-ssim-rd / signhide / no-tskip / nr-intra=0 / nr-inter=0 / no-constrained-intra / no-strong-intra-smoothing / max-merge=4 / limit-refs=2 / limit-modes / me=3 / subme=7 / merange=57 / temporal-mvp / no-frame-dup / no-hme / weightp / weightb / no-analyze-src-pics / deblock=-3:-3 / no-sao / no-sao-non-deblock / rd=6 / selective-sao=0 / no-early-skip / no-rskip / no-fast-intra / no-tskip-fast / no-cu-lossless / no-b-intra / no-splitrd-skip / rdpenalty=0 / psy-rd=2.00 / psy-rdoq=1.00 / no-rd-refine / no-lossless / cbqpoffs=0 / crqpoffs=0 / rc=crf / crf=19.0 / qcomp=0.60 / qpstep=4 / stats-write=0 / stats-read=0 / vbv-maxrate=50000 / vbv-bufsize=50000 / vbv-init=0.9 / crf-max=0.0 / crf-min=0.0 / ipratio=1.40 / pbratio=1.30 / aq-mode=1 / aq-strength=1.00 / no-cutree / zone-count=0 / no-strict-cbr / qg-size=32 / no-rc-grain / qpmax=69 / qpmin=0 / no-const-vbv / sar=1 / overscan=0 / videoformat=5 / range=0 / colorprim=1 / transfer=1 / colormatrix=1 / chromaloc=0 / display-window=0 / cll=0,0 / min-luma=0 / max-luma=1023 / log2-max-poc-lsb=8 / vui-timing-info / vui-hrd-info / slices=1 / no-opt-qp-pps / no-opt-ref-list-length-pps / no-multi-pass-opt-rps / scenecut-bias=0.05 / hist-threshold=0.01 / no-opt-cu-delta-qp / no-aq-motion / no-hdr10 / no-hdr10-opt / no-dhdr10-opt / no-idr-recovery-sei / analysis-reuse-level=0 / analysis-save-reuse-level=0 / analysis-load-reuse-level=0 / scale-factor=0 / refine-intra=0 / refine-inter=0 / refine-mv=1 / refine-ctu-distortion=0 / no-limit-sao / ctu-info=0 / no-lowpass-dct / refine-analysis-type=0 / copy-pic=1 / max-ausize-factor=1.0 / no-dynamic-refine / no-single-sei / no-hevc-aq / no-svt / no-field / qp-adaptation-range=1.00 / no-scenecut-aware-qpconformance-window-offsets / right=0 / bottom=0
    Default : Да
    Forced : Нет
    Цветовой диапазон : Limited
    Основные цвета : BT.709
    Характеристики трансфера : BT.709
    Коэффициенты матрицы : BT.709
    Аудио #1
    Идентификатор : 2
    Формат : AC-3
    Формат/Информация : Audio Coding 3
    Идентификатор кодека : A_AC3
    Продолжительность : 1 ч. 33 м.
    Вид битрейта : Постоянный
    Битрейт : 384 Кбит/сек
    Каналы : 6 каналов
    Расположение каналов : Front: L C R, Side: L R, LFE
    Частота : 48,0 КГц
    Частота кадров : 31,250 кадров/сек (1536 SPF)
    Битовая глубина : 16 бит
    Метод сжатия : С потерями
    Размер потока : 257 Мбайт (5%)
    Заголовок : iTunes
    Язык : Russian
    ServiceKind/Strin : Complete Main
    Default : Да
    Forced : Да
    Аудио #2
    Идентификатор : 3
    Формат : AC-3
    Формат/Информация : Audio Coding 3
    Идентификатор кодека : A_AC3
    Продолжительность : 1 ч. 33 м.
    Вид битрейта : Постоянный
    Битрейт : 640 Кбит/сек
    Каналы : 6 каналов
    Расположение каналов : Front: L C R, Side: L R, LFE
    Частота : 48,0 КГц
    Частота кадров : 31,250 кадров/сек (1536 SPF)
    Битовая глубина : 16 бит
    Метод сжатия : С потерями
    Размер потока : 429 Мбайт (8%)
    Заголовок : Original
    Язык : English
    ServiceKind/Strin : Complete Main
    Default : Нет
    Forced : Нет
    Текст #1
    Идентификатор : 4
    Формат : UTF-8
    Идентификатор кодека : S_TEXT/UTF8
    Идентификатор кодека/Информация : UTF-8 Plain Text
    Продолжительность : 1 ч. 28 м.
    Битрейт : 1 бит/сек
    ElementCount : 34
    Размер потока : 1,00 Кбайт (0%)
    Заголовок : Forced
    Язык : Russian
    Default : Да
    Forced : Да
    Текст #2
    Идентификатор : 5
    Формат : UTF-8
    Идентификатор кодека : S_TEXT/UTF8
    Идентификатор кодека/Информация : UTF-8 Plain Text
    Продолжительность : 1 ч. 33 м.
    Битрейт : 101 бит/сек
    ElementCount : 1414
    Размер потока : 69,5 Кбайт (0%)
    Заголовок : Full
    Язык : Russian
    Default : Нет
    Forced : Нет
    Текст #3
    Идентификатор : 6
    Формат : UTF-8
    Идентификатор кодека : S_TEXT/UTF8
    Идентификатор кодека/Информация : UTF-8 Plain Text
    Продолжительность : 1 ч. 26 м.
    Битрейт : 65 бит/сек
    ElementCount : 1483
    Размер потока : 41,9 Кбайт (0%)
    Заголовок : Full
    Язык : English
    Default : Нет
    Forced : Нет
    Текст #4
    Идентификатор : 7
    Формат : UTF-8
    Идентификатор кодека : S_TEXT/UTF8
    Идентификатор кодека/Информация : UTF-8 Plain Text
    Продолжительность : 1 ч. 31 м.
    Битрейт : 81 бит/сек
    ElementCount : 1885
    Размер потока : 55,0 Кбайт (0%)
    Заголовок : SDH
    Язык : English
    Default : Нет
    Forced : Нет
    Меню
    00:00:00.000 : en:Chapter 01
    00:07:40.460 : en:Chapter 02
    00:15:15.748 : en:Chapter 03
    00:25:04.085 : en:Chapter 04
    00:34:40.203 : en:Chapter 05
    00:44:58.779 : en:Chapter 06
    00:53:22.532 : en:Chapter 07
    01:01:22.095 : en:Chapter 08
    01:10:20.382 : en:Chapter 09
    01:19:34.352 : en:Chapter 10
    01:27:18.066 : en:Chapter 11

    _________________
    Показать сообщения:    
    Главная  Мультфильмы  Мультфильмы HEVC & (48-60 fps) и Мультсборники

    Текущее время: 23-Окт 05:00

    Часовой пояс: UTC + 5



    Вы не можете начинать темы
    Вы не можете отвечать на сообщения
    Вы не можете редактировать свои сообщения
    Вы не можете удалять свои сообщения
    Вы не можете голосовать в опросах
    Вы не можете прикреплять файлы к сообщениям
    Вы не можете скачивать файлы