Плод Грисайи / Grisaia no Kajitsu [TV 1-2 + Спешлы] (Танака Мотоки) [2014-2015, Гарем, драма, комедия, психология, романтика, этти, BDRip] MVO (AniDUB) :: UZTOR.PW Лучший трекер в зоне TAS-IX!
 
Уважаемые гости сайта! Добро Пожаловать на наш торрент трекер,где Вы можете бесплатно скачать любой Софт,Фильмы,Музыку и многое другое! А так же постоянно ведется набор модераторов и релизеров. Зарегистрируйтесь сейчас, чтобы получить доступ ко всем функциям. После регистрации или входа на сайт вы сможете создавать темы, отвечать на сообщения и скачивать файлы.

Навигация по Торрент раздачам и Форум и Стол заказов и Группы



 Плод Грисайи / Grisaia no Kajitsu [TV 1-2 + Спешлы] (Танака Мотоки) [2014-2015, Гарем, драма, комедия, психология, романтика, этти, BDRip] MVO (AniDUB)

Главная  Аниме  Сериалы  Аниме Сериалы
Статистика раздачи
Нет
 
     
 
 
 
Автор Сообщение
  • Создавать темы 07-Сен-2020 04:56

    Плод Грисайи / Grisaia no Kajitsu-- Год выхода: 2014 - 2015 гг.
    Страна: Япония
    Студия: 8bit
    Жанр: гарем, драма, комедия, психология, романтика, этти
    Продолжительность: 24 серий x ~00:24:00 (01-02 сезон) + 12 серий x ~ 00:03:00 (Спешелы) + 01 серия x (0:48:00) (Лабиринт Грисайи)
    Перевод: Любительский (многоголосый, закадровый) Cuba77 & Nika Lenina & Гамлетка Цезаревна (AniDub)-Режиссер: Танака Мотоки-В ролях: Рёко Танака, Хироко Тагути, Каори Мидзухаси, Томоэ Тамиясу, Ай Симидзу, Такахиро Сакурай, Нацуми Янасэ, Эрика Наруми-О фильме: Юдзи Кадзами в 10 лет потерял родителей и был воспитан людьми, для которых писаные законы – пустой звук, а чужие жизни – что трава на ветру. Творя разное, парень быстро познал законы темного мира, и ныне его разум отточен, рефлексы – совершенны, а принципы гибки, как стальной клинок. Но даже сталь имеет предел усталости, и «рыцарь ночи» обратился к знакомой хозяйке частной школы с просьбой дать ему возможность пожить жизнью обычного старшеклассника со всеми прилагающимися маленькими радостями. Та ответила, что Юдзи пришел по адресу, ведь академия Михама закрыта для публики, а учатся в ней всего пять девушек!
    Но что такое новая школа – крепость пяти затворниц или тюрьма, что защищает мир от их существования? Угрюмая Юмико, затейница Аманэ, маленькая дикарка Макина, фальшивая цундэрэ Митиру и Сати, заигравшаяся в горничную – все они несут в себе какую-то боль, отгородившую их от семьи, сверстников и внешнего мира. Загнанные в круг, девушки не могут помочь себе – спасением может стать лишь человек со стороны, одинокий циник и философ. Так что впереди у Юдзи много работы, но не ждите скучной слезливой романтики – за новую цель и волю к жизни ученицы Михамы кого угодно на куски порвут!-Цензура: Отсутствует
    Возрастное ограничение: Запрещено для детей 18+-Качество: BDRip
    Контейнер: AVI
    Видео: XviD, 720x400 / 720x304 (2.35:1), 23.976 fps, 1 322 kb/s (0.252 bit/pixel)
    Аудио №1: AC-3, 48,0 КГц, 2 ch, 192 Кбит/сек, CBR | | AniDub
    Аудио №2: AC-3, 48,0 КГц, 2 ch, 192 /сек, CBR | | Japan (Оригинал)
    Русские Субтитры: Есть (Полный Перевод)--

    Хронология

    #1 >>>Grisaia no Kajitsu - ТВ (13 эп. + спэшлы), адаптация игры, 2014 ✔ (Есть в раздаче)
    #2 Grisaia no Meikyuu - ТВ-спэшл, адаптация игры, 2015 ✔ (Есть в раздаче)
    #3 Grisaia no Rakuen - ТВ (10 эп.), адаптация игры, 2015 ✔ (Есть в раздаче)
    #4 Grisaia: Phantom Trigger The Animation - п/ф, адаптация игры, 2019

    Список Серий

    Сезон № 1 (Плод Грисайи [ТВ-1] / Grisaia no Kajitsu)
    01. Будни обычного школьника
    02. Школьная маньячка Юмико
    03. Сладкая диета
    04. Куда стрелять серебряной пулей?
    05. Глас из коробки
    06. Смысл существования
    07. Письмо счастья
    08. Семя Древа мира. Часть 1
    09. Семя Древа мира. Часть 2
    10. Муки ангелов. Часть 1
    11. Муки ангелов. Часть 2
    12. Муки ангелов. Часть 3
    13. Выстрел в зазор
    Плод Грисайи: Спешлы / Grisaia no Kajitsu Specials
    01-06 из 06
    Лабиринт Грисайи / Grisaia no Meikyuu: Caprice no Mayu 0 Specials
    Сезон № 2 (Рай в серых тонах / Grisaia no Rakuen)
    01. Тернистый путь. Часть 1
    02. Тернистый путь. Часть 2
    03. Тернистый путь. Часть 3
    04. Тернистый путь. Часть 4
    05. Рождение «Белого крыла». Часть 1
    06. Рождение «Белого крыла». Часть 2
    07. Рождение «Белого крыла». Часть 3
    08. Рождение «Белого крыла». Часть 4
    09. Рождение «Белого крыла». Часть 5
    10. Рождение «Белого крыла». Часть 6
    Лабиринт Грисайи: Спешл / Grisaia no Meikyuu: Caprice no Mayu 0 - Takizono Basketball Club no Nama Cream Party!
    Рай Грисайи: Спешлы / Grisaia no Rakuen Specials

    MediaInfo

    General
    Complete name : Grisaia no Kajitsu (2014)Плод Грисайи.2014.Uncensored.BDRip.RUS.JAP.Серия.01.avi
    Format : AVI
    Format/Info : Audio Video Interleave
    File size : 292 MiB
    Duration : 23 min 41 s
    Overall bit rate : 1 721 kb/s
    Movie name : Плод Грисайи.2014.Uncensored.BDRip.RUS.JAP.Серия.01
    Director : Encoder by Deadmauvlad
    Genre : этти, драма, гарем
    Writing application : VirtualDubMod 1.5.10.3 | www.virtualdub-fr.org || (build 2550/release)
    Original source form/Name : Аниме
    Copyright : Encoder by Deadmauvlad
    Comment : Encoder by Deadmauvlad
    Video
    ID : 0
    Format : MPEG-4 Visual
    Format profile : Advanced Simple@L5
    Format settings : BVOP1 / Custom Matrix
    Format settings, BVOP : 1
    Format settings, QPel : No
    Format settings, GMC : No warppoints
    Format settings, Matrix : Custom
    Codec ID : XVID
    Codec ID/Hint : XviD
    Duration : 23 min 41 s
    Bit rate : 1 322 kb/s
    Width : 720 pixels
    Height : 304 pixels
    Display aspect ratio : 2.35:1
    Frame rate : 23.976 (24000/1001) FPS
    Color space : YUV
    Chroma subsampling : 4:2:0
    Bit depth : 8 bits
    Scan type : Progressive
    Compression mode : Lossy
    Bits/(Pixel*Frame) : 0.252
    Stream size : 224 MiB (77%)
    Writing library : XviD 73
    Audio #1
    ID : 1
    Format : AC-3
    Format/Info : Audio Coding 3
    Commercial name : Dolby Digital
    Codec ID : 2000
    Duration : 23 min 41 s
    Bit rate mode : Constant
    Bit rate : 192 kb/s
    Channel(s) : 2 channels
    Channel layout : L R
    Sampling rate : 48.0 kHz
    Frame rate : 31.250 FPS (1536 SPF)
    Bit depth : 16 bits
    Compression mode : Lossy
    Stream size : 32.5 MiB (11%)
    Alignment : Split accross interleaves
    Interleave, duration : 42 ms (1.00 video frame)
    Interleave, preload duration : 500 ms
    Audio #2
    ID : 2
    Format : AC-3
    Format/Info : Audio Coding 3
    Commercial name : Dolby Digital
    Codec ID : 2000
    Duration : 23 min 41 s
    Bit rate mode : Constant
    Bit rate : 192 kb/s
    Channel(s) : 2 channels
    Channel layout : L R
    Sampling rate : 48.0 kHz
    Frame rate : 31.250 FPS (1536 SPF)
    Bit depth : 16 bits
    Compression mode : Lossy
    Stream size : 32.5 MiB (11%)
    Alignment : Split accross interleaves
    Interleave, duration : 42 ms (1.00 video frame)
    Interleave, preload duration : 500 ms

    _________________
    Показать сообщения:    
    Главная  Аниме  Сериалы  Аниме Сериалы

    Текущее время: 26-Окт 08:51

    Часовой пояс: UTC + 5



    Вы не можете начинать темы
    Вы не можете отвечать на сообщения
    Вы не можете редактировать свои сообщения
    Вы не можете удалять свои сообщения
    Вы не можете голосовать в опросах
    Вы не можете прикреплять файлы к сообщениям
    Вы не можете скачивать файлы