За кровь платят кровью / Blood in Blood out (Bound By Honor) (Тэйлор Хэкфорд / Taylor Hackford) [1993, США, Драма, DVDRip] AVO + MVO :: UZTOR.PW Лучший трекер в зоне TAS-IX!
 
Уважаемые гости сайта! Добро Пожаловать на наш торрент трекер,где Вы можете бесплатно скачать любой Софт,Фильмы,Музыку и многое другое! А так же постоянно ведется набор модераторов и релизеров. Зарегистрируйтесь сейчас, чтобы получить доступ ко всем функциям. После регистрации или входа на сайт вы сможете создавать темы, отвечать на сообщения и скачивать файлы.

Навигация по Торрент раздачам и Форум и Стол заказов и Группы



 За кровь платят кровью / Blood in Blood out (Bound By Honor) (Тэйлор Хэкфорд / Taylor Hackford) [1993, США, Драма, DVDRip] AVO + MVO

Главная  Кинофильмы  Зарубежные кинофильмы  Фильмы до 2000 года
Статистика раздачи
Нет
 
     
 
 
 
Автор Сообщение
  • Создавать темы 02-Сен-2020 16:40

    За кровь платят кровью / Blood in Blood out (Bound By Honor)«An epic story of three brothers. Bound by blood. Divided by fate. Driven by destiny»-Страна: США
    Жанр: Драма
    Год выпуска: 1993
    Продолжительность: 02:52:44
    Перевод: 1-ая дорожка Любительский одноголосый (Дольский)
    Перевод: 2-ая дорожка Многоголосый закадровый
    Субтитры: нет-Режиссер: Тэйлор Хэкфорд (Taylor Hackford)-В ролях: Бенджамин Братт (Benjamin Bratt), Дэни Трэхо (Danny Trejo), Билли Боб Торнтон (Billy Bob Thornton), Дэмиан Чапа (Damian Chapa), Джесс Боррего (Jesse Borrego), Энрике Кастильо (Enrique Castillo), Виктор Риверс (Victor Rivers), Делрой Линдо (Delroy Lindo), Карлос Карраско (Carlos Carrasco)-Описание: Эта жестокая экшн-драма Тэйлора Хэкфорда основана на реальных событиях.
    Когда кровь на улицах льется как вода, и нет ничего дешевле, чем жизнь человека, надо уметь говорить на языке насилия. Иначе не выжить. Эту истину в латинском квартале Лос-Анджелеса познают с детства. Связанные узами крови друзья Майкло, Пако и Круз выросли в этом мире поножовщины и гангстерских разборок, но выбрали разные судьбы. Майкло, пройдя тюремную школу, стал крутым бандитом. Круз подавал надежды как художник, однако увяз в наркотическом угаре. А Пако надел форму полицейского. Кажется, пути их разошлись навсегда. Но однажды злые улицы снова сведут героев вместе – и кое-кто из бывших друзей встретятся злейшими врагами...-
    Возраст: зрителям, достигшим 18 лет-Рейтинг MPAA: лицам до 17 лет обязательно присутствие взрослого-Качество видео: DVDRip
    Формат видео: AVI
    Видео кодек: XviD
    Аудио кодек: MP3
    Видео: 704x432 (1.63:1), 25 fps, XviD MPEG-4 ~967 kbps avg, 0.13 bit/pixel
    Аудио 1 : 44.100 kHz, MPEG Layer 3, 2 ch, ~192.00 kbps avg (Русский | VO)
    Аудио 2 : 44.100 kHz, MPEG Layer 3, 2 ch, ~128.00 kbps avg (Русский | МVO)-

    〤 ОтчетМедиаИнфо 〤

    General
    Format : AVI
    Format/Info : Audio Video Interleave
    File size : 1.57 GiB
    Duration : 2h 52mn
    Overall bit rate : 1 302 Kbps
    Writing application : VirtualDubMod 1.5.10.1 (build 2366/release)
    Writing library : VirtualDubMod build 2366/release
    Video
    ID : 0
    Format : MPEG-4 Visual
    Format profile : Advanced Simple@L5
    Format settings, BVOP : Yes
    Format settings, QPel : No
    Format settings, GMC : No warppoints
    Format settings, Matrix : Default (H.263)
    Codec ID : XVID
    Codec ID/Hint : XviD
    Duration : 2h 52mn
    Bit rate : 968 Kbps
    Width : 704 pixels
    Height : 432 pixels
    Display aspect ratio : 16:10
    Frame rate : 25.000 fps
    Color space : YUV
    Chroma subsampling : 4:2:0
    Bit depth : 8 bits
    Scan type : Progressive
    Compression mode : Lossy
    Bits/(Pixel*Frame) : 0.127
    Stream size : 1.17 GiB (74%)
    Writing library : XviD 1.2.0SMP (UTC 2006-01-08)
    Audio #1
    ID : 1
    Format : MPEG Audio
    Format version : Version 1
    Format profile : Layer 3
    Codec ID : 55
    Codec ID/Hint : MP3
    Duration : 2h 52mn
    Bit rate mode : Constant
    Bit rate : 192 Kbps
    Channel(s) : 2 channels
    Sampling rate : 44.1 KHz
    Compression mode : Lossy
    Stream size : 236 MiB (15%)
    Alignment : Split accross interleaves
    Interleave, duration : 40 ms (1.00 video frame)
    Interleave, preload duration : 500 ms
    Language : Deutsch
    Audio #2
    ID : 2
    Format : MPEG Audio
    Format version : Version 1
    Format profile : Layer 3
    Mode : Joint stereo
    Mode extension : MS Stereo
    Codec ID : 55
    Codec ID/Hint : MP3
    Duration : 2h 52mn
    Bit rate mode : Constant
    Bit rate : 128 Kbps
    Channel(s) : 2 channels
    Sampling rate : 44.1 KHz
    Compression mode : Lossy
    Stream size : 158 MiB (10%)
    Alignment : Split accross interleaves
    Interleave, duration : 40 ms (1.00 video frame)
    Interleave, preload duration : 500 ms
    Writing library : LAME3.98
    Encoding settings : -m j -V 4 -q 5 -lowpass 17.5 -b 128
    © Оформление by kat222000

    _________________
    Показать сообщения:    
    Главная  Кинофильмы  Зарубежные кинофильмы  Фильмы до 2000 года

    Текущее время: 26-Окт 09:00

    Часовой пояс: UTC + 5



    Вы не можете начинать темы
    Вы не можете отвечать на сообщения
    Вы не можете редактировать свои сообщения
    Вы не можете удалять свои сообщения
    Вы не можете голосовать в опросах
    Вы не можете прикреплять файлы к сообщениям
    Вы не можете скачивать файлы