Хоббит: Коллекция / The Hobbit: Collection (Питер Джексон) [2012-2014, Фэнтези, приключения, BDRip-HEVC 1080p] DUB (Лицензия), AVO (Сербин, Горчаков) | Расширенная версия :: UZTOR.PW Лучший трекер в зоне TAS-IX!
 
Уважаемые гости сайта! Добро Пожаловать на наш торрент трекер,где Вы можете бесплатно скачать любой Софт,Фильмы,Музыку и многое другое! А так же постоянно ведется набор модераторов и релизеров. Зарегистрируйтесь сейчас, чтобы получить доступ ко всем функциям. После регистрации или входа на сайт вы сможете создавать темы, отвечать на сообщения и скачивать файлы.

Навигация по Торрент раздачам и Форум и Стол заказов и Группы



 Хоббит: Коллекция / The Hobbit: Collection (Питер Джексон) [2012-2014, Фэнтези, приключения, BDRip-HEVC 1080p] DUB (Лицензия), AVO (Сербин, Горчаков) | Расширенная версия

Главная  Кинофильмы  Кинофильмы (HEVC)  Фильмологии
Статистика раздачи
Нет
 
     
 
 
 
Автор Сообщение
  • Создавать темы 30-Авг-2020 13:18

    -- --Годы выхода: 2012, 2013, 2014
    Жанр: Фэнтези, приключения
    Режиссер: Питер Джексон
    Продолжительность: 03:02:32 | 03:06:37 | 02:44:03-

    Хоббит: Нежданное путешествие / The Hobbit: An Unexpected Journey (2012)

    Хоббит: Нежданное путешествие / The Hobbit: An Unexpected Journey--Год выхода: 2012
    Страна: США, Новая Зеландия
    Студия: Metro-Goldwyn-Mayer (MGM), New Line Cinema, WingNut Films
    Жанр: Фэнтези, приключения
    Продолжительность: 03:02:32
    Перевод: Профессиональный (дублированный), Авторский одноголосый-Режиссер: Питер Джексон-В ролях: Мартин Фриман, Иэн МакКеллен, Ричард Армитедж, Джеймс Несбитт, Кен Стотт, Грэм МакТавиш, Дин О’Горман, Эйдан Тернер-О фильме: Фильм повествует о путешествии Бильбо Бэггинса, который пускается в грандиозный поход, целью которого является отвоевание утраченного королевства гномов Эребор у зловещего дракона Смауга. Совершенно неожиданно с хоббитом налаживает контакт волшебник Гэндальф Серый. Так Бильбо находит себя, присоединяясь к компании тринадцати гномов, возглавляемых легендарным воином, Торином Дубощитом. Их путешествие проляжет через Дикий Край, через предательские земли, населенные гоблинами и орками, смертоносными варгами и гигантскими пауками, народом, меняющим шкуры, и волшебниками. И хотя их цель находится на Востоке, среди пустошей Одинокой Горы, сначала им придется выбраться из туннелей гоблинов, где Бильбо встретит существо, которое изменит его жизнь навсегда… Голлума.
    Здесь, один на один с Голлумом, на берегу подземного озера, непритязательный Бильбо Бэггинс обнаружит не только скрытые в глубине души хитрость и отвагу, которые удивят даже его, но и завладеет «прелестным» колечком Голлума, которое обладает нежданными и полезными свойствами… Простое золотое кольцо, c которым связана судьба всего Средиземья, нитями, о которых Бильбо не мог даже вообразить...-Качество: BDRip-HEVC 1080p
    Формат: MKV
    Видео: HEVC/x265, 1920x800 (2.40:1), 6648 Кбит/сек, 10 бит
    Аудио №1: Русская, AC3, 448 Кбит/сек, Front: L C R, Side: L R, LFE, 48,0 КГц (Дубляж)
    Аудио №2: Русская, AC3, 448 Кбит/сек, Front: L C R, Side: L R, LFE, 48,0 КГц (AVO Сербин)
    Аудио №3: Русская, AC3, 448 Кбит/сек, Front: L C R, Side: L R, LFE, 48,0 КГц (AVO Горчаков)
    Аудио №4: Английская, AC3, 448 Кбит/сек, Front: L C R, Side: L R, LFE, 48,0 КГц (Оригинал)--

    MediaInfo

    General
    Unique ID : 199667454685739192742108749439582750458 (0x96368D90BEBDA42EABE5B70432B246FA)
    Complete name : H:HEVC 210 BITHobbitThe Hobbit_An Unexpected Journey_2012_Extended Edition_BDRip_1080p_[HEVC]_10bit.mkv
    Format : Matroska
    Format version : Version 4 / Version 2
    File size : 10.8 GiB
    Duration : 3 h 2 min
    Overall bit rate : 8 443 kb/s
    Encoded date : UTC 2018-02-14 18:13:12
    Writing application : mkvmerge v18.0.0 ('Apricity') 64-bit
    Writing library : libebml v1.3.5 + libmatroska v1.4.8
    Cover : Yes
    Attachments : cover.jpg
    Video
    ID : 1
    Format : HEVC
    Format/Info : High Efficiency Video Coding
    Format profile : Main 10@L4.1@High
    Codec ID : V_MPEGH/ISO/HEVC
    Duration : 3 h 2 min
    Bit rate : 6 648 kb/s
    Width : 1 920 pixels
    Height : 800 pixels
    Display aspect ratio : 2.40:1
    Frame rate mode : Constant
    Frame rate : 23.976 (24000/1001) FPS
    Color space : YUV
    Chroma subsampling : 4:2:0
    Bit depth : 10 bits
    Bits/(Pixel*Frame) : 0.181
    Stream size : 8.48 GiB (79%)
    Writing library : x265 2.6+37-1949157705ce:[Windows][GCC 7.3.0][64 bit] 10bit
    Encoding settings : cpuid=1173503 / frame-threads=4 / numa-pools=16 / wpp / no-pmode / no-pme / no-psnr / no-ssim / log-level=2 / input-csp=1 / input-res=1920x800 / interlace=0 / total-frames=0 / level-idc=41 / high-tier=1 / uhd-bd=0 / ref=5 / no-allow-non-conformance / no-repeat-headers / annexb / no-aud / no-hrd / info / hash=0 / no-temporal-layers / open-gop / min-keyint=23 / keyint=240 / gop-lookahead=0 / bframes=6 / b-adapt=2 / no-b-pyramid / bframe-bias=0 / rc-lookahead=40 / lookahead-slices=4 / scenecut=40 / radl=0 / no-intra-refresh / ctu=64 / min-cu-size=8 / rect / amp / max-tu-size=32 / tu-inter-depth=4 / tu-intra-depth=4 / limit-tu=1 / rdoq-level=2 / dynamic-rd=0.00 / no-ssim-rd / signhide / no-tskip / nr-intra=0 / nr-inter=0 / no-constrained-intra / no-strong-intra-smoothing / max-merge=3 / limit-refs=3 / limit-modes / me=3 / subme=5 / merange=57 / temporal-mvp / weightp / weightb / no-analyze-src-pics / deblock=-3:-3 / no-sao / no-sao-non-deblock / rd=6 / no-early-skip / no-rskip / no-fast-intra / no-tskip-fast / no-cu-lossless / b-intra / no-splitrd-skip / rdpenalty=0 / psy-rd=2.00 / psy-rdoq=0.00 / no-rd-refine / no-lossless / cbqpoffs=-2 / crqpoffs=-2 / rc=crf / crf=18.0 / qcomp=0.60 / qpstep=4 / stats-write=0 / stats-read=0 / vbv-maxrate=50000 / vbv-bufsize=50000 / vbv-init=0.9 / crf-max=0.0 / crf-min=0.0 / ipratio=1.40 / pbratio=1.30 / aq-mode=1 / aq-strength=1.00 / cutree / zone-count=1 / zones: / start-frame=247865 / end-frame=262547 / qp=35 / no-strict-cbr / qg-size=32 / no-rc-grain / qpmax=69 / qpmin=0 / no-const-vbv / sar=1 / overscan=0 / videoformat=5 / range=0 / colorprim=2 / transfer=2 / colormatrix=1 / chromaloc=0 / display-window=0 / max-cll=0,0 / min-luma=0 / max-luma=1023 / log2-max-poc-lsb=8 / vui-timing-info / vui-hrd-info / slices=1 / no-opt-qp-pps / no-opt-ref-list-length-pps / no-multi-pass-opt-rps / scenecut-bias=0.05 / no-opt-cu-delta-qp / no-aq-motion / no-hdr / no-hdr-opt / no-dhdr10-opt / analysis-reuse-level=5 / scale-factor=0 / refine-intra=0 / refine-inter=0 / refine-mv=0 / no-limit-sao / ctu-info=0 / no-lowpass-dct / refine-mv-type=0 / copy-pic=1
    Language : English
    Default : Yes
    Forced : Yes
    Color range : Limited
    Matrix coefficients : BT.709
    Audio #1
    ID : 2
    Format : AC-3
    Format/Info : Audio Coding 3
    Format settings, Endianness : Big
    Codec ID : A_AC3
    Duration : 3 h 2 min
    Bit rate mode : Constant
    Bit rate : 448 kb/s
    Channel(s) : 6 channels
    Channel positions : Front: L C R, Side: L R, LFE
    Sampling rate : 48.0 kHz
    Frame rate : 31.250 FPS (1536 SPF)
    Bit depth : 16 bits
    Compression mode : Lossy
    Stream size : 585 MiB (5%)
    Title : Дубляж
    Language : Russian
    Service kind : Complete Main
    Default : Yes
    Forced : No
    Audio #2
    ID : 3
    Format : AC-3
    Format/Info : Audio Coding 3
    Format settings, Endianness : Big
    Codec ID : A_AC3
    Duration : 3 h 2 min
    Bit rate mode : Constant
    Bit rate : 448 kb/s
    Channel(s) : 6 channels
    Channel positions : Front: L C R, Side: L R, LFE
    Sampling rate : 48.0 kHz
    Frame rate : 31.250 FPS (1536 SPF)
    Bit depth : 16 bits
    Compression mode : Lossy
    Stream size : 585 MiB (5%)
    Title : AVO Сербин
    Language : Russian
    Service kind : Complete Main
    Default : No
    Forced : No
    Audio #3
    ID : 4
    Format : AC-3
    Format/Info : Audio Coding 3
    Format settings, Endianness : Big
    Codec ID : A_AC3
    Duration : 3 h 2 min
    Bit rate mode : Constant
    Bit rate : 448 kb/s
    Channel(s) : 6 channels
    Channel positions : Front: L C R, Side: L R, LFE
    Sampling rate : 48.0 kHz
    Frame rate : 31.250 FPS (1536 SPF)
    Bit depth : 16 bits
    Compression mode : Lossy
    Stream size : 585 MiB (5%)
    Title : AVO Горчаков
    Language : Russian
    Service kind : Complete Main
    Default : No
    Forced : No
    Audio #4
    ID : 5
    Format : AC-3
    Format/Info : Audio Coding 3
    Format settings, Endianness : Big
    Codec ID : A_AC3
    Duration : 3 h 2 min
    Bit rate mode : Constant
    Bit rate : 448 kb/s
    Channel(s) : 6 channels
    Channel positions : Front: L C R, Side: L R, LFE
    Sampling rate : 48.0 kHz
    Frame rate : 31.250 FPS (1536 SPF)
    Bit depth : 16 bits
    Compression mode : Lossy
    Stream size : 585 MiB (5%)
    Title : Оригинал
    Language : English
    Service kind : Complete Main
    Default : No
    Forced : No
    Text #1
    ID : 6
    Format : UTF-8
    Codec ID : S_TEXT/UTF8
    Codec ID/Info : UTF-8 Plain Text
    Duration : 3 h 0 min
    Bit rate : 1 b/s
    Count of elements : 53
    Stream size : 1.80 KiB (0%)
    Title : RUS Forced
    Language : Russian
    Default : Yes
    Forced : No
    Text #2
    ID : 7
    Format : UTF-8
    Codec ID : S_TEXT/UTF8
    Codec ID/Info : UTF-8 Plain Text
    Duration : 3 h 1 min
    Bit rate : 57 b/s
    Count of elements : 2157
    Stream size : 76.5 KiB (0%)
    Title : RUS Full
    Language : Russian
    Default : No
    Forced : No
    Text #3
    ID : 8
    Format : UTF-8
    Codec ID : S_TEXT/UTF8
    Codec ID/Info : UTF-8 Plain Text
    Duration : 2 h 55 min
    Bit rate : 46 b/s
    Count of elements : 2188
    Stream size : 59.3 KiB (0%)
    Title : ENG Full
    Language : English
    Default : No
    Forced : No
    Menu
    00:00:00.000 : ru:Chapter 01
    00:10:11.861 : ru:Chapter 02
    00:14:08.681 : ru:Chapter 03
    00:17:27.254 : ru:Chapter 04
    00:18:44.540 : ru:Chapter 05
    00:23:16.561 : ru:Chapter 06
    00:27:59.469 : ru:Chapter 07
    00:36:04.871 : ru:Chapter 08
    00:41:17.266 : ru:Chapter 09
    00:46:30.829 : ru:Chapter 10
    00:53:04.181 : ru:Chapter 11
    00:58:07.650 : ru:Chapter 12
    00:59:55.049 : ru:Chapter 13
    01:10:42.154 : ru:Chapter 14
    01:15:01.455 : ru:Chapter 15
    01:18:52.602 : ru:Chapter 16
    01:24:56.674 : ru:Chapter 17
    01:30:34.429 : ru:Chapter 18
    01:34:10.436 : ru:Chapter 19
    01:37:24.463 : ru:Chapter 20
    01:39:03.479 : ru:Chapter 21
    01:41:40.803 : ru:Chapter 22
    01:50:22.532 : ru:Chapter 23
    01:52:59.773 : ru:Chapter 24
    01:59:06.305 : ru:Chapter 25
    02:03:57.513 : ru:Chapter 26
    02:09:51.492 : ru:Chapter 27
    02:23:21.384 : ru:Chapter 28
    02:25:18.626 : ru:Chapter 29
    02:26:31.115 : ru:Chapter 30
    02:30:52.668 : ru:Chapter 31
    02:33:00.421 : ru:Chapter 32
    02:35:52.593 : ru:Chapter 33
    02:46:51.209 : ru:Chapter 34
    02:52:21.372 : ru:Chapter 35

    Хоббит: Пустошь Смауга / The Hobbit: The Desolation of Smaug (2013)

    Хоббит: Пустошь Смауга / The Hobbit: The Desolation of Smaug--Год выхода: 2013
    Страна: США, Новая Зеландия
    Студия: Metro-Goldwyn-Mayer (MGM), New Line Cinema, WingNut Films
    Жанр: Фэнтези, приключения
    Продолжительность: 03:06:37
    Перевод: Профессиональный (дублированный), Авторский одноголосый-Режиссер: Питер Джексон-В ролях: Мартин Фриман, Ричард Армитедж, Иэн МакКеллен, Эванджелин Лилли, Орландо Блум, Люк Эванс, Бенедикт Камбербэтч, Ли Пейс, Кен Стотт-О фильме: Продолжение путешествия хоббита Бильбо Бэггинса, волшебника Гэндальфа и 13 отважных гномов. Их компания обязана завершить своё путешествие к Одинокой горе. Там они должны встретиться с величайшей опасностью из всех — созданием куда более ужасающим, чем все их прошлые противники, которое проверит на прочность не только их мужество, но крепость их дружбы и правильность выбранного пути, — драконом Смаугом...-Качество: BDRip-HEVC 1080p
    Формат: MKV
    Видео: HEVC/x265, 1920x800 (2.40:1), 5788 Кбит/сек, 10 бит
    Аудио №1: Русская, AC3, 448 Кбит/сек, Front: L C R, Side: L R, LFE, 48,0 КГц (Дубляж)
    Аудио №2: Русская, AC3, 448 Кбит/сек, Front: L C R, Side: L R, LFE, 48,0 КГц (AVO Сербин)
    Аудио №3: Русская, AC3, 448 Кбит/сек, Front: L C R, Side: L R, LFE, 48,0 КГц (AVO Горчаков)
    Аудио №4: Английская, AC3, 448 Кбит/сек, Front: L C R, Side: L R, LFE, 48,0 КГц (Оригинал)--

    MediaInfo

    General
    Unique ID : 195647435908378551223203285793380335208 (0x933053565151CAE1817F562272CD7E68)
    Complete name : H:HEVC 210 BITHobbitThe Hobbit_The Desolation of Smaug_2013_Extended Edition_BDRip_1080p_[HEVC]_10bit.mkv
    Format : Matroska
    Format version : Version 4 / Version 2
    File size : 9.88 GiB
    Duration : 3 h 6 min
    Overall bit rate : 7 582 kb/s
    Encoded date : UTC 2018-02-15 18:58:06
    Writing application : mkvmerge v18.0.0 ('Apricity') 64-bit
    Writing library : libebml v1.3.5 + libmatroska v1.4.8
    Cover : Yes
    Attachments : cover.jpg
    Video
    ID : 1
    Format : HEVC
    Format/Info : High Efficiency Video Coding
    Format profile : Main 10@L4.1@High
    Codec ID : V_MPEGH/ISO/HEVC
    Duration : 3 h 6 min
    Bit rate : 5 788 kb/s
    Width : 1 920 pixels
    Height : 800 pixels
    Display aspect ratio : 2.40:1
    Frame rate mode : Constant
    Frame rate : 23.976 (24000/1001) FPS
    Color space : YUV
    Chroma subsampling : 4:2:0
    Bit depth : 10 bits
    Bits/(Pixel*Frame) : 0.157
    Stream size : 7.54 GiB (76%)
    Writing library : x265 2.6+37-1949157705ce:[Windows][GCC 7.3.0][64 bit] 10bit
    Encoding settings : cpuid=1173503 / frame-threads=4 / numa-pools=16 / wpp / no-pmode / no-pme / no-psnr / no-ssim / log-level=2 / input-csp=1 / input-res=1920x800 / interlace=0 / total-frames=0 / level-idc=41 / high-tier=1 / uhd-bd=0 / ref=5 / no-allow-non-conformance / no-repeat-headers / annexb / no-aud / no-hrd / info / hash=0 / no-temporal-layers / open-gop / min-keyint=23 / keyint=240 / gop-lookahead=0 / bframes=6 / b-adapt=2 / no-b-pyramid / bframe-bias=0 / rc-lookahead=40 / lookahead-slices=4 / scenecut=40 / radl=0 / no-intra-refresh / ctu=64 / min-cu-size=8 / rect / amp / max-tu-size=32 / tu-inter-depth=4 / tu-intra-depth=4 / limit-tu=1 / rdoq-level=2 / dynamic-rd=0.00 / no-ssim-rd / signhide / no-tskip / nr-intra=0 / nr-inter=0 / no-constrained-intra / no-strong-intra-smoothing / max-merge=3 / limit-refs=3 / limit-modes / me=3 / subme=5 / merange=57 / temporal-mvp / weightp / weightb / no-analyze-src-pics / deblock=-3:-3 / no-sao / no-sao-non-deblock / rd=6 / no-early-skip / no-rskip / no-fast-intra / no-tskip-fast / no-cu-lossless / b-intra / no-splitrd-skip / rdpenalty=0 / psy-rd=2.00 / psy-rdoq=0.00 / no-rd-refine / no-lossless / cbqpoffs=-2 / crqpoffs=-2 / rc=crf / crf=18.0 / qcomp=0.60 / qpstep=4 / stats-write=0 / stats-read=0 / vbv-maxrate=50000 / vbv-bufsize=50000 / vbv-init=0.9 / crf-max=0.0 / crf-min=0.0 / ipratio=1.40 / pbratio=1.30 / aq-mode=1 / aq-strength=1.00 / cutree / zone-count=1 / zones: / start-frame=253191 / end-frame=268409 / qp=35 / no-strict-cbr / qg-size=32 / no-rc-grain / qpmax=69 / qpmin=0 / no-const-vbv / sar=1 / overscan=0 / videoformat=5 / range=0 / colorprim=2 / transfer=2 / colormatrix=1 / chromaloc=0 / display-window=0 / max-cll=0,0 / min-luma=0 / max-luma=1023 / log2-max-poc-lsb=8 / vui-timing-info / vui-hrd-info / slices=1 / no-opt-qp-pps / no-opt-ref-list-length-pps / no-multi-pass-opt-rps / scenecut-bias=0.05 / no-opt-cu-delta-qp / no-aq-motion / no-hdr / no-hdr-opt / no-dhdr10-opt / analysis-reuse-level=5 / scale-factor=0 / refine-intra=0 / refine-inter=0 / refine-mv=0 / no-limit-sao / ctu-info=0 / no-lowpass-dct / refine-mv-type=0 / copy-pic=1
    Language : English
    Default : Yes
    Forced : Yes
    Color range : Limited
    Matrix coefficients : BT.709
    Audio #1
    ID : 2
    Format : AC-3
    Format/Info : Audio Coding 3
    Format settings, Endianness : Big
    Codec ID : A_AC3
    Duration : 3 h 6 min
    Bit rate mode : Constant
    Bit rate : 448 kb/s
    Channel(s) : 6 channels
    Channel positions : Front: L C R, Side: L R, LFE
    Sampling rate : 48.0 kHz
    Frame rate : 31.250 FPS (1536 SPF)
    Bit depth : 16 bits
    Compression mode : Lossy
    Stream size : 598 MiB (6%)
    Title : Дубляж
    Language : Russian
    Service kind : Complete Main
    Default : Yes
    Forced : No
    Audio #2
    ID : 3
    Format : AC-3
    Format/Info : Audio Coding 3
    Format settings, Endianness : Big
    Codec ID : A_AC3
    Duration : 3 h 6 min
    Bit rate mode : Constant
    Bit rate : 448 kb/s
    Channel(s) : 6 channels
    Channel positions : Front: L C R, Side: L R, LFE
    Sampling rate : 48.0 kHz
    Frame rate : 31.250 FPS (1536 SPF)
    Bit depth : 16 bits
    Compression mode : Lossy
    Stream size : 598 MiB (6%)
    Title : AVO Сербин
    Language : Russian
    Service kind : Complete Main
    Default : No
    Forced : No
    Audio #3
    ID : 4
    Format : AC-3
    Format/Info : Audio Coding 3
    Format settings, Endianness : Big
    Codec ID : A_AC3
    Duration : 3 h 6 min
    Bit rate mode : Constant
    Bit rate : 448 kb/s
    Channel(s) : 6 channels
    Channel positions : Front: L C R, Side: L R, LFE
    Sampling rate : 48.0 kHz
    Frame rate : 31.250 FPS (1536 SPF)
    Bit depth : 16 bits
    Compression mode : Lossy
    Stream size : 598 MiB (6%)
    Title : AVO Горчаков
    Language : Russian
    Service kind : Complete Main
    Default : No
    Forced : No
    Audio #4
    ID : 5
    Format : AC-3
    Format/Info : Audio Coding 3
    Format settings, Endianness : Big
    Codec ID : A_AC3
    Duration : 3 h 6 min
    Bit rate mode : Constant
    Bit rate : 448 kb/s
    Channel(s) : 6 channels
    Channel positions : Front: L C R, Side: L R, LFE
    Sampling rate : 48.0 kHz
    Frame rate : 31.250 FPS (1536 SPF)
    Bit depth : 16 bits
    Compression mode : Lossy
    Stream size : 598 MiB (6%)
    Title : Оригинал
    Language : English
    Service kind : Complete Main
    Default : No
    Forced : No
    Text #1
    ID : 6
    Format : UTF-8
    Codec ID : S_TEXT/UTF8
    Codec ID/Info : UTF-8 Plain Text
    Duration : 3 h 5 min
    Bit rate : 2 b/s
    Count of elements : 100
    Stream size : 2.85 KiB (0%)
    Title : RUS forced
    Language : Russian
    Default : Yes
    Forced : No
    Text #2
    ID : 7
    Format : UTF-8
    Codec ID : S_TEXT/UTF8
    Codec ID/Info : UTF-8 Plain Text
    Duration : 3 h 5 min
    Bit rate : 49 b/s
    Count of elements : 2124
    Stream size : 67.4 KiB (0%)
    Title : RUS full
    Language : Russian
    Default : No
    Forced : No
    Text #3
    ID : 8
    Format : UTF-8
    Codec ID : S_TEXT/UTF8
    Codec ID/Info : UTF-8 Plain Text
    Duration : 2 h 54 min
    Bit rate : 38 b/s
    Count of elements : 2035
    Stream size : 48.7 KiB (0%)
    Title : ENG full
    Language : English
    Default : No
    Forced : No
    Menu
    00:00:00.000 : en:Chapter 01
    00:07:33.411 : en:Chapter 02
    00:12:00.261 : en:Chapter 03
    00:12:59.403 : en:Chapter 04
    00:15:55.329 : en:Chapter 05
    00:20:56.880 : en:Chapter 06
    00:23:15.310 : en:Chapter 07
    00:25:52.634 : en:Chapter 08
    00:29:59.214 : en:Chapter 09
    00:38:13.708 : en:Chapter 10
    00:46:43.717 : en:Chapter 11
    00:49:46.274 : en:Chapter 12
    00:53:19.196 : en:Chapter 13
    00:55:10.181 : en:Chapter 14
    00:58:07.817 : en:Chapter 15
    01:08:42.284 : en:Chapter 16
    01:12:22.296 : en:Chapter 17
    01:15:45.332 : en:Chapter 18
    01:19:09.828 : en:Chapter 19
    01:22:46.795 : en:Chapter 20
    01:25:09.395 : en:Chapter 21
    01:28:07.490 : en:Chapter 22
    01:31:15.178 : en:Chapter 23
    01:36:02.757 : en:Chapter 24
    01:37:35.724 : en:Chapter 25
    01:40:35.320 : en:Chapter 26
    01:45:16.476 : en:Chapter 27
    01:48:44.434 : en:Chapter 28
    01:50:31.625 : en:Chapter 29
    01:52:36.332 : en:Chapter 30
    01:53:08.239 : en:Chapter 31
    01:59:16.315 : en:Chapter 32
    02:07:11.790 : en:Chapter 33
    02:07:39.068 : en:Chapter 34
    02:09:22.629 : en:Chapter 35
    02:12:48.335 : en:Chapter 36
    02:22:00.803 : en:Chapter 37
    02:22:43.429 : en:Chapter 38
    02:23:17.880 : en:Chapter 39
    02:24:56.187 : en:Chapter 40
    02:26:45.046 : en:Chapter 41
    02:29:18.783 : en:Chapter 42
    02:33:12.683 : en:Chapter 43
    02:34:57.579 : en:Chapter 44
    02:36:13.155 : en:Chapter 45
    02:37:45.914 : en:Chapter 46
    02:39:08.789 : en:Chapter 47
    02:41:39.815 : en:Chapter 48
    02:44:05.794 : en:Chapter 49
    02:51:16.683 : en:Chapter 50
    02:56:05.179 : en:Chapter 51

    Хоббит: Битва пяти воинств / The Hobbit: The Battle of the Five Armies (2014)

    Хоббит: Битва пяти воинств / The Hobbit: The Battle of the Five Armies--Год выхода: 2014
    Страна: США, Новая Зеландия
    Студия: Metro-Goldwyn-Mayer (MGM), New Line Cinema, WingNut Films
    Жанр: Фэнтези, приключения
    Продолжительность: 02:44:03
    Перевод: Профессиональный (дублированный), Авторский одноголосый-Режиссер: Питер Джексон-В ролях: Мартин Фриман, Иэн МакКеллен, Ричард Армитедж, Люк Эванс, Эванджелин Лилли, Ли Пейс, Орландо Блум, Бенедикт Камбербэтч, Кен Стотт-О фильме: Когда отряд из тринадцати гномов нанимал хоббита Бильбо Бэгинса в качестве взломщика и четырнадцатого, «счастливого», участника похода к Одинокой горе, Бильбо полагал, что его приключения закончатся, когда он выполнит свою задачу — найдет сокровище, которое так необходимо предводителю гномов Торину. Путешествие в Эребор, захваченное драконом Смаугом королевство гномов, оказалось еще более опасным, чем предполагали гномы и даже Гэндальф — мудрый волшебник, протянувший Торину и его отряду руку помощи.
    В погоню за гномами устремилась армия орков, ведомых пробудившимся в руинах древним злом, а эльфы и люди, с которыми Бильбо и его товарищам пришлось иметь дело во время путешествия и которые пострадали от последствий желания гномов вернуть свой дом, предъявили права на щедрое вознаграждение — часть сокровищ Одинокой горы. Скоро неподалеку от Одинокой горы встретятся пять армий, и лишь кровопролитная битва определит результаты смелого гномьего похода...-Качество: BDRip-HEVC 1080p
    Формат: MKV
    Видео: HEVC/x265, 1920x800 (2.40:1), 6193 Кбит/сек, 10 бит
    Аудио №1: Русская, AC3, 448 Кбит/сек, Front: L C R, Side: L R, LFE, 48,0 КГц (Дубляж)
    Аудио №2: Русская, AC3, 448 Кбит/сек, Front: L C R, Side: L R, LFE, 48,0 КГц (AVO Сербин)
    Аудио №3: Русская, AC3, 448 Кбит/сек, Front: L C R, Side: L R, LFE, 48,0 КГц (AVO Горчаков)
    Аудио №4: Английская, AC3, 448 Кбит/сек, Front: L C R, Side: L R, LFE, 48,0 КГц (Оригинал)--

    MediaInfo

    General
    Unique ID : 209207450882973340530920664011386124288 (0x9D63E3B15203569CA3D649B552AFF800)
    Complete name : H:HEVC 210 BITHobbitThe Hobbit_The Battle Of The Five Armies_2014_Extended.Cut_BDRip_1080p_[HEVC]_10bit.mkv
    Format : Matroska
    Format version : Version 4 / Version 2
    File size : 9.15 GiB
    Duration : 2 h 44 min
    Overall bit rate : 7 987 kb/s
    Encoded date : UTC 2018-02-16 19:21:16
    Writing application : mkvmerge v18.0.0 ('Apricity') 64-bit
    Writing library : libebml v1.3.5 + libmatroska v1.4.8
    Cover : Yes
    Attachments : cover.jpg
    Video
    ID : 1
    Format : HEVC
    Format/Info : High Efficiency Video Coding
    Format profile : Main 10@L4.1@High
    Codec ID : V_MPEGH/ISO/HEVC
    Duration : 2 h 44 min
    Bit rate : 6 193 kb/s
    Width : 1 920 pixels
    Height : 800 pixels
    Display aspect ratio : 2.40:1
    Frame rate mode : Constant
    Frame rate : 23.976 (24000/1001) FPS
    Color space : YUV
    Chroma subsampling : 4:2:0
    Bit depth : 10 bits
    Bits/(Pixel*Frame) : 0.168
    Stream size : 7.10 GiB (78%)
    Writing library : x265 2.6+37-1949157705ce:[Windows][GCC 7.3.0][64 bit] 10bit
    Encoding settings : cpuid=1173503 / frame-threads=4 / numa-pools=16 / wpp / no-pmode / no-pme / no-psnr / no-ssim / log-level=2 / input-csp=1 / input-res=1920x800 / interlace=0 / total-frames=0 / level-idc=41 / high-tier=1 / uhd-bd=0 / ref=5 / no-allow-non-conformance / no-repeat-headers / annexb / no-aud / no-hrd / info / hash=0 / no-temporal-layers / open-gop / min-keyint=23 / keyint=240 / gop-lookahead=0 / bframes=6 / b-adapt=2 / no-b-pyramid / bframe-bias=0 / rc-lookahead=40 / lookahead-slices=4 / scenecut=40 / radl=0 / no-intra-refresh / ctu=64 / min-cu-size=8 / rect / amp / max-tu-size=32 / tu-inter-depth=4 / tu-intra-depth=4 / limit-tu=1 / rdoq-level=2 / dynamic-rd=0.00 / no-ssim-rd / signhide / no-tskip / nr-intra=0 / nr-inter=0 / no-constrained-intra / no-strong-intra-smoothing / max-merge=3 / limit-refs=3 / limit-modes / me=3 / subme=5 / merange=57 / temporal-mvp / weightp / weightb / no-analyze-src-pics / deblock=-3:-3 / no-sao / no-sao-non-deblock / rd=6 / no-early-skip / no-rskip / no-fast-intra / no-tskip-fast / no-cu-lossless / b-intra / no-splitrd-skip / rdpenalty=0 / psy-rd=2.00 / psy-rdoq=0.00 / no-rd-refine / no-lossless / cbqpoffs=-2 / crqpoffs=-2 / rc=crf / crf=18.0 / qcomp=0.60 / qpstep=4 / stats-write=0 / stats-read=0 / vbv-maxrate=50000 / vbv-bufsize=50000 / vbv-init=0.9 / crf-max=0.0 / crf-min=0.0 / ipratio=1.40 / pbratio=1.30 / aq-mode=1 / aq-strength=1.00 / cutree / zone-count=1 / zones: / start-frame=217246 / end-frame=235985 / qp=35 / no-strict-cbr / qg-size=32 / no-rc-grain / qpmax=69 / qpmin=0 / no-const-vbv / sar=1 / overscan=0 / videoformat=5 / range=0 / colorprim=2 / transfer=2 / colormatrix=1 / chromaloc=0 / display-window=0 / max-cll=0,0 / min-luma=0 / max-luma=1023 / log2-max-poc-lsb=8 / vui-timing-info / vui-hrd-info / slices=1 / no-opt-qp-pps / no-opt-ref-list-length-pps / no-multi-pass-opt-rps / scenecut-bias=0.05 / no-opt-cu-delta-qp / no-aq-motion / no-hdr / no-hdr-opt / no-dhdr10-opt / analysis-reuse-level=5 / scale-factor=0 / refine-intra=0 / refine-inter=0 / refine-mv=0 / no-limit-sao / ctu-info=0 / no-lowpass-dct / refine-mv-type=0 / copy-pic=1
    Default : Yes
    Forced : Yes
    Color range : Limited
    Matrix coefficients : BT.709
    Audio #1
    ID : 2
    Format : AC-3
    Format/Info : Audio Coding 3
    Format settings, Endianness : Big
    Codec ID : A_AC3
    Duration : 2 h 44 min
    Bit rate mode : Constant
    Bit rate : 448 kb/s
    Channel(s) : 6 channels
    Channel positions : Front: L C R, Side: L R, LFE
    Sampling rate : 48.0 kHz
    Frame rate : 31.250 FPS (1536 SPF)
    Bit depth : 16 bits
    Compression mode : Lossy
    Stream size : 526 MiB (6%)
    Title : Дубляж
    Language : Russian
    Service kind : Complete Main
    Default : Yes
    Forced : No
    Audio #2
    ID : 3
    Format : AC-3
    Format/Info : Audio Coding 3
    Format settings, Endianness : Big
    Codec ID : A_AC3
    Duration : 2 h 44 min
    Bit rate mode : Constant
    Bit rate : 448 kb/s
    Channel(s) : 6 channels
    Channel positions : Front: L C R, Side: L R, LFE
    Sampling rate : 48.0 kHz
    Frame rate : 31.250 FPS (1536 SPF)
    Bit depth : 16 bits
    Compression mode : Lossy
    Stream size : 526 MiB (6%)
    Title : AVO Сербин
    Language : Russian
    Service kind : Complete Main
    Default : No
    Forced : No
    Audio #3
    ID : 4
    Format : AC-3
    Format/Info : Audio Coding 3
    Format settings, Endianness : Big
    Codec ID : A_AC3
    Duration : 2 h 44 min
    Bit rate mode : Constant
    Bit rate : 448 kb/s
    Channel(s) : 6 channels
    Channel positions : Front: L C R, Side: L R, LFE
    Sampling rate : 48.0 kHz
    Frame rate : 31.250 FPS (1536 SPF)
    Bit depth : 16 bits
    Compression mode : Lossy
    Stream size : 526 MiB (6%)
    Title : AVO Горчаков
    Language : Russian
    Service kind : Complete Main
    Default : No
    Forced : No
    Audio #4
    ID : 5
    Format : AC-3
    Format/Info : Audio Coding 3
    Format settings, Endianness : Big
    Codec ID : A_AC3
    Duration : 2 h 44 min
    Bit rate mode : Constant
    Bit rate : 448 kb/s
    Channel(s) : 6 channels
    Channel positions : Front: L C R, Side: L R, LFE
    Sampling rate : 48.0 kHz
    Frame rate : 31.250 FPS (1536 SPF)
    Bit depth : 16 bits
    Compression mode : Lossy
    Stream size : 526 MiB (6%)
    Title : Оригинал
    Language : English
    Service kind : Complete Main
    Default : No
    Forced : No
    Text #1
    ID : 6
    Format : UTF-8
    Codec ID : S_TEXT/UTF8
    Codec ID/Info : UTF-8 Plain Text
    Duration : 2 h 28 min
    Bit rate : 5 b/s
    Count of elements : 98
    Stream size : 6.03 KiB (0%)
    Title : RUS Forced
    Language : Russian
    Default : Yes
    Forced : No
    Text #2
    ID : 7
    Format : UTF-8
    Codec ID : S_TEXT/UTF8
    Codec ID/Info : UTF-8 Plain Text
    Duration : 2 h 42 min
    Bit rate : 39 b/s
    Count of elements : 1549
    Stream size : 47.2 KiB (0%)
    Title : RUS Full
    Language : Russian
    Default : No
    Forced : No
    Text #3
    ID : 8
    Format : UTF-8
    Codec ID : S_TEXT/UTF8
    Codec ID/Info : UTF-8 Plain Text
    Duration : 2 h 29 min
    Bit rate : 29 b/s
    Count of elements : 1462
    Stream size : 32.8 KiB (0%)
    Title : ENG Full
    Language : English
    Default : No
    Forced : No
    Menu
    00:00:00.000 : en:Fire and Water
    00:05:12.061 : en:Bard the Dragon-Slayer
    00:12:47.016 : en:Dungeons of the Dark Lord
    00:13:18.964 : en:Shores of the Long Lake
    00:18:57.219 : en:Not at Home
    00:23:42.003 : en:Others will Now Look to the Mountain
    00:24:56.119 : en:Legions of the Defiler
    00:26:04.354 : en:The Mark of Gundabad
    00:27:32.984 : en:Attack on Dol Guldur
    00:35:45.351 : en:Summon Our Friends
    00:36:41.073 : en:The King's Jewel
    00:40:41.898 : en:The Ruins of Dale
    00:42:01.144 : en:Erebor Fortified
    00:43:11.756 : en:The Elvenking's Aid
    00:46:16.148 : en:The Gathering of the Clouds
    00:51:27.668 : en:A Token of Friendship
    00:54:57.961 : en:The Shadow of Gundabad
    00:56:14.830 : en:The Last Move in a Master Plan
    00:58:31.299 : en:Bolg of the North
    01:00:26.957 : en:The Night Watch
    01:02:43.593 : en:A Thief in the Night
    01:06:10.175 : en:An Honest Burglar
    01:12:23.297 : en:Dain Ironfoot
    01:17:22.555 : en:The Clouds Burst
    01:20:36.331 : en:The Battle at Dale
    01:24:57.217 : en:The Darkest Hour
    01:28:41.775 : en:Dragon-Sickness
    01:30:52.280 : en:The Return of Thorin Oakenshild
    01:33:02.159 : en:Sons of Durin
    01:35:12.832 : en:"To the King!"
    01:38:32.489 : en:A Call to Arms
    01:39:42.893 : en:Thorin's Plan
    01:41:00.596 : en:The War Chariot
    01:45:03.505 : en:Courage and Cowardice
    01:47:13.635 : en:The Fifth Army
    01:49:05.288 : en:Scouting Ravenhill
    01:50:03.013 : en:Blood of the Eldar
    01:52:59.606 : en:An Unforeseen Remedy
    01:53:51.282 : en:The Fallen
    01:57:15.236 : en:The Battle at Ravenhill
    02:05:38.572 : en:To the Death
    02:12:07.044 : en:Parting in Friendship
    02:20:07.440 : en:King under the Mountain
    02:22:27.205 : en:The Return Journey
    02:26:11.596 : en:The Last Stage
    02:30:54.462 : en:Credits

    _________________
    Показать сообщения:    
    Главная  Кинофильмы  Кинофильмы (HEVC)  Фильмологии

    Текущее время: 31-Окт 00:57

    Часовой пояс: UTC + 5



    Вы не можете начинать темы
    Вы не можете отвечать на сообщения
    Вы не можете редактировать свои сообщения
    Вы не можете удалять свои сообщения
    Вы не можете голосовать в опросах
    Вы не можете прикреплять файлы к сообщениям
    Вы не можете скачивать файлы