Хоббит: Инаугурация Борна / The Hobbit: The Battle of the Five Armies (Питер Джексон, Гном Пасаран) [2014/2020, Пародия, комедия, юмористический перевод, HDRip-AVC] MVO (deBohpodast) :: UZTOR.PW Лучший трекер в зоне TAS-IX!
 
Уважаемые гости сайта! Добро Пожаловать на наш торрент трекер,где Вы можете бесплатно скачать любой Софт,Фильмы,Музыку и многое другое! А так же постоянно ведется набор модераторов и релизеров. Зарегистрируйтесь сейчас, чтобы получить доступ ко всем функциям. После регистрации или входа на сайт вы сможете создавать темы, отвечать на сообщения и скачивать файлы.

Навигация по Торрент раздачам и Форум и Стол заказов и Группы



 Хоббит: Инаугурация Борна / The Hobbit: The Battle of the Five Armies (Питер Джексон, Гном Пасаран) [2014/2020, Пародия, комедия, юмористический перевод, HDRip-AVC] MVO (deBohpodast)

Главная  Кинофильмы  Зарубежные кинофильмы  Новинки
Статистика раздачи
Нет
 
     
 
 
 
Автор Сообщение
  • Создавать темы 30-Авг-2020 09:53

    Хоббит: Инаугурация Борна / The Hobbit: The Battle of the Five Armies--Год выхода: 2014 / 2020
    Страна: США, Новая Зеландия
    Жанр: пародия, комедия, юмористический перевод
    Продолжительность: 02:11:37
    Перевод: Любительский многоголосый (смешной перевод студии deBohpodast')-Режиссер: Питер Джексон, Гном Пасаран-В ролях: Мартин Фриман, Иэн МакКеллен, Ричард Армитедж, Люк Эванс, Эванджелин Лилли, Ли Пейс, Орландо Блум, Бенедикт Камбербэтч, Кен Стотт, Эйдан Тернер-О фильме: Смешной перевод фильма "Хоббит: Битва пяти воинств".
    Развязка близка! В ходе предыдущих событий самыми разными путями рядом с Дырявой горой оказались все участники похода к термоядерному динозавру, а также те, кто так или иначе оказался к нему причастен. Кто-то оказался здесь случайно, кто-то пришёл воздать по мордам Супердеду или Борну за их былые подвиги. А кого-то интересует и нечто более важное, ибо в покинутой динозавром горе есть нечто более ценное, чем куча просроченного шоколада. Там остался валяться Тессеракт — Камень Бесконечности, на который давно зарились многие, в том числе и Борн в далёком прошлом. Камешек сей способен на многое, если уметь им пользоваться. И на ещё большее — если не уметь. Кому же он достанется, кто станет главной обезьяной с гранатой? И чем закончится масштабный замес у Дырявой горы? На все вопросы ответит финальная часть!-Качество: HDRip-AVC
    Формат: MKV
    Видео: MPEG-4 AVC, 720x304 (2.37:1), 23.976 fps, H.264 ~2193 kbps avg, 0.42 bit/pixel
    Аудио: 48 kHz, AC3 Dolby Digital, 2 ch, ~320 kbps-Примечание:
    Релиз от Альянса Вольных Переводчиков.
    Четвёртая часть пародийной Хоббитианы от студии deBohpodast'.
    Пародия монтажная - видеоряд исходника перемонтирован, присутствуют вставки из других фильмов.
    Ненормативная лексика отсутствует.--

    MediaInfo

    General
    Complete name : D:___фильмыHobbit.Inauguracia.Borna.2020.HDRip.mkv
    Format : Matroska
    Format version : Version 2
    File size : 2.31 GiB
    Duration : 2 h 11 min
    Overall bit rate : 2 510 kb/s
    Encoded date : UTC 2020-08-24 11:53:38
    Writing application : mkvmerge v6.9.1 ('Blue Panther') 32bit built on Apr 18 2014 18:15:44
    Writing library : libebml v1.3.0 + libmatroska v1.4.1
    Video
    ID : 1
    Format : AVC
    Format/Info : Advanced Video Codec
    Format profile : High@L3
    Format settings : CABAC / 3 Ref Frames
    Format settings, CABAC : Yes
    Format settings, RefFrames : 3 frames
    Codec ID : V_MPEG4/ISO/AVC
    Duration : 2 h 11 min
    Bit rate : 2 200 kb/s
    Width : 720 pixels
    Height : 304 pixels
    Display aspect ratio : 2.35:1
    Frame rate mode : Constant
    Frame rate : 23.976 (24000/1001) FPS
    Color space : YUV
    Chroma subsampling : 4:2:0
    Bit depth : 8 bits
    Scan type : Progressive
    Bits/(Pixel*Frame) : 0.419
    Stream size : 1.97 GiB (85%)
    Writing library : x264 core 152 r2851bm ba24899
    Encoding settings : cabac=1 / ref=3 / deblock=1:-2:-2 / analyse=0x3:0x113 / me=hex / subme=7 / psy=1 / psy_rd=1.00:0.25 / mixed_ref=1 / me_range=16 / chroma_me=1 / trellis=1 / 8x8dct=1 / cqm=0 / deadzone=6,6 / fast_pskip=1 / chroma_qp_offset=-4 / threads=1 / lookahead_threads=1 / sliced_threads=0 / nr=0 / decimate=0 / interlaced=0 / bluray_compat=0 / constrained_intra=0 / bframes=0 / weightp=2 / keyint=250 / keyint_min=23 / scenecut=40 / intra_refresh=0 / rc=abr / mbtree=0 / bitrate=2200 / ratetol=1.0 / qcomp=0.80 / qpmin=0 / qpmax=69 / qpstep=4 / ip_ratio=1.10 / aq=1:0.50
    Default : Yes
    Forced : No
    Audio
    ID : 2
    Format : AC-3
    Format/Info : Audio Coding 3
    Commercial name : Dolby Digital
    Codec ID : A_AC3
    Duration : 2 h 11 min
    Bit rate mode : Constant
    Bit rate : 320 kb/s
    Channel(s) : 2 channels
    Channel layout : L R
    Sampling rate : 48.0 kHz
    Frame rate : 31.250 FPS (1536 SPF)
    Bit depth : 16 bits
    Compression mode : Lossy
    Stream size : 301 MiB (13%)
    Service kind : Complete Main
    Default : Yes
    Forced : No

    _________________
    Показать сообщения:    
    Главная  Кинофильмы  Зарубежные кинофильмы  Новинки

    Текущее время: 01-Ноя 05:48

    Часовой пояс: UTC + 5



    Вы не можете начинать темы
    Вы не можете отвечать на сообщения
    Вы не можете редактировать свои сообщения
    Вы не можете удалять свои сообщения
    Вы не можете голосовать в опросах
    Вы не можете прикреплять файлы к сообщениям
    Вы не можете скачивать файлы