Из якудза в идолы / Back Street Girls: Gokudolls [TV-1] [10 из 10] (Тиаки Кон) [2018, Комедия, этти, сейнен, BDRip] MVO (Kansai) :: UZTOR.PW Лучший трекер в зоне TAS-IX!
 
Уважаемые гости сайта! Добро Пожаловать на наш торрент трекер,где Вы можете бесплатно скачать любой Софт,Фильмы,Музыку и многое другое! А так же постоянно ведется набор модераторов и релизеров. Зарегистрируйтесь сейчас, чтобы получить доступ ко всем функциям. После регистрации или входа на сайт вы сможете создавать темы, отвечать на сообщения и скачивать файлы.

Навигация по Торрент раздачам и Форум и Стол заказов и Группы



 Из якудза в идолы / Back Street Girls: Gokudolls [TV-1] [10 из 10] (Тиаки Кон) [2018, Комедия, этти, сейнен, BDRip] MVO (Kansai)

Главная  Аниме  Сериалы  Аниме Сериалы
Статистика раздачи
Нет
 
     
 
 
 
Автор Сообщение
  • Создавать темы 28-Авг-2020 10:49

    Из якудза в идолы / Back Street Girls: Gokudolls--Выпуск: 2018
    Страна: Япония
    Студия: J.C. Staff
    Жанр: комедия, этти, сейнен
    Продолжительность: 10 х ~ 00:24:00
    Перевод: Профессиональный многоголосый закадровый [Kansai]
    Возрастное ограничение: 18+ [Запрещено для детей]-Автор оригинала: Жасмин Гю
    Снято по манге: Back Street Girls
    Режиссер: Тиаки Кон-В ролях: Сатоси Хино, Кадзуюки Окицу, Даисукэ Оно, Хикару Акао, Юка Нукуи, Кэидзи Фудзивара, Хисао Эгава, Нацуки Ханаэ, Сувабэ Дзюнити, Аи Каяно-Описание: В джазе только девушки, говорите? Тогда в идолах только якудза! Кто сказал, что якудза грубые мужланы? Немедленно возьмите свои слова обратно. Это аниме докажет вам, что даже в самом суровом мужчине таится нежная сторона, о которой многие и не догадываются. Началось всё с того, что Кентаро, Рё и Казухико - троица не особо талантливых якудза - довели своего босса до ручки. Бывших якудза не бывает, особенно если ты парень на побегушках, а не важная шишка. Поэтому выбор был невелик, а именно - смерть. Но босс смилостивился и предложил им другой вариант, менее заманчивый, но по крайней мере сохраняющий их в живых. Нашей троице предстоит отказаться от усов и пиджаков, сменить пол и стать красотками Айри, Мари и Чикой, которые впоследствии дебютируют, как идол-группа "Куколки Гоку”. Кто бы мог подумать, что бывших головорезов ждёт сногсшибательный успех на музыкальном поприще? Покой им теперь только снился, а обычная жизнь, полная простых мирских радостей, тем более! Может быть они всё же прогадали, и стоило выбрать первоначальный вариант?-Качество: BDRip
    Формат: .AVI
    Видео: XviD, 720x400 (16:9), 23.976 fps, 1 571 kb/s (0.228 bit/pixel)
    Аудио №1: AC3, 48.0 kHz, 2 ch, 192 kb/s, CBR | | Kansai
    Аудио №2: AC3, 48.0 kHz, 2 ch, 192 kb/s, CBR| | Japan (Оригинал)
    Субтитры: Русские (Полные)--

    Эпизоды

    1. Старт карьеры идолов / Босс! Учитель? Продюсер!? / Сладкие и горькие воспоминания / Новое понимание / Свержение! Якудза!
    2. Но... / Немыслимое / Уловка на ток-шоу ❤ / О чём говорят девушки? / Вы любите друг друга?
    3. Специалист по Девушкам / Звёзды Киноэкрана / Я Хочу Начать с Начала / Четвёртый человек / Идолы Якудза
    4. В душе они всё те же / Место, где рождаются слухи / Суперлюбовь! / Пища для души / Раны / Недовольство
    5. Бесславный победитель / Любовь к мужчине / Японский Дорн / Дон и босс / Семейные узы / Встреча жертв Кукол Гоку
    6. Рабочие, объединяйтесь! / Последнее выступление / Голубь / Знатная парочка / 5 демонов
    7. Нирвана / Кое-что важное / Новый сингл / Новичок / Девушка из старшей школы / Ученик и наставник
    8. Скрытая камера / Мужество / Упражнение для нижней части тела / Борода и бюст
    9. Изменения в группе / Передача HGS / Удивительно! / Жалость... / С музыкальным инструментом / Захватывающе / Прикрытие
    10. Душа гангстера / Всё за ничего / Помоги мне / Окончание / Шаг вперёд / Финальный эпизод

    MediaInfo

    General
    Complete name : [Deadmau- RAWS] Из.якудза.в.идолы.S01.RUS.JAP.BDRip.Deadmauvlad.Ep.01.avi
    Format : AVI
    Format/Info : Audio Video Interleave
    File size : 334 MiB
    Duration : 23 min 41 s
    Overall bit rate : 1 970 kb/s
    Director : Encoder by Deadmauvlad
    Writing application : VirtualDubMod 1.5.10.3 | www.virtualdub-fr.org || (build 2550/release)
    Writing library : VirtualDubMod build 2550/release
    Copyright : Encoder by Deadmauvlad
    Video
    ID : 0
    Format : MPEG-4 Visual
    Format profile : Advanced Simple@L5
    Format settings : BVOP1 / Custom Matrix
    Format settings, BVOP : 1
    Format settings, QPel : No
    Format settings, GMC : No warppoints
    Format settings, Matrix : Custom
    Codec ID : XVID
    Codec ID/Hint : XviD
    Duration : 23 min 41 s
    Bit rate : 1 571 kb/s
    Width : 720 pixels
    Height : 400 pixels
    Display aspect ratio : 16:9
    Frame rate : 23.976 (24000/1001) FPS
    Color space : YUV
    Chroma subsampling : 4:2:0
    Bit depth : 8 bits
    Scan type : Progressive
    Compression mode : Lossy
    Bits/(Pixel*Frame) : 0.228
    Stream size : 266 MiB (80%)
    Writing library : XviD 73
    Audio #1
    ID : 1
    Format : AC-3
    Format/Info : Audio Coding 3
    Commercial name : Dolby Digital
    Codec ID : 2000
    Duration : 23 min 41 s
    Bit rate mode : Constant
    Bit rate : 192 kb/s
    Channel(s) : 2 channels
    Channel layout : L R
    Sampling rate : 48.0 kHz
    Frame rate : 31.250 FPS (1536 SPF)
    Bit depth : 16 bits
    Compression mode : Lossy
    Stream size : 32.5 MiB (10%)
    Alignment : Split accross interleaves
    Interleave, duration : 42 ms (1.00 video frame)
    Interleave, preload duration : 500 ms
    Audio #2
    ID : 2
    Format : AC-3
    Format/Info : Audio Coding 3
    Commercial name : Dolby Digital
    Codec ID : 2000
    Duration : 23 min 41 s
    Bit rate mode : Constant
    Bit rate : 192 kb/s
    Channel(s) : 2 channels
    Channel layout : L R
    Sampling rate : 48.0 kHz
    Frame rate : 31.250 FPS (1536 SPF)
    Bit depth : 16 bits
    Compression mode : Lossy
    Stream size : 32.5 MiB (10%)
    Alignment : Split accross interleaves
    Interleave, duration : 42 ms (1.00 video frame)
    Interleave, preload duration : 500 ms

    _________________
    Показать сообщения:    
    Главная  Аниме  Сериалы  Аниме Сериалы

    Текущее время: 31-Окт 00:06

    Часовой пояс: UTC + 5



    Вы не можете начинать темы
    Вы не можете отвечать на сообщения
    Вы не можете редактировать свои сообщения
    Вы не можете удалять свои сообщения
    Вы не можете голосовать в опросах
    Вы не можете прикреплять файлы к сообщениям
    Вы не можете скачивать файлы