Необъятные небеса / IS: Infinite Stratos [TV 1-2 + OVA] (Кикути Ясухито, Тосака Син) [2011-2014, Гарем, комедия, меха, приключения, романтика, фантастика, этти, BDRip] MVO (AniLibria) :: UZTOR.PW Лучший трекер в зоне TAS-IX!
 
Уважаемые гости сайта! Добро Пожаловать на наш торрент трекер,где Вы можете бесплатно скачать любой Софт,Фильмы,Музыку и многое другое! А так же постоянно ведется набор модераторов и релизеров. Зарегистрируйтесь сейчас, чтобы получить доступ ко всем функциям. После регистрации или входа на сайт вы сможете создавать темы, отвечать на сообщения и скачивать файлы.

Навигация по Торрент раздачам и Форум и Стол заказов и Группы



 Необъятные небеса / IS: Infinite Stratos [TV 1-2 + OVA] (Кикути Ясухито, Тосака Син) [2011-2014, Гарем, комедия, меха, приключения, романтика, фантастика, этти, BDRip] MVO (AniLibria)

Главная  Аниме  Сериалы  Аниме Сериалы
Статистика раздачи
Нет
 
     
 
 
 
Автор Сообщение
  • Создавать темы 28-Авг-2020 10:44

    Необъятные небеса / IS: Infinite Stratos--Год выхода: 2011-2014
    Страна: Япония
    Студия: 8bit
    Жанр: гарем, комедия, меха, приключения, романтика, фантастика, этти
    Продолжительность: 25 серий x 00:24:00 + 01 серия x 00:45:00-Перевод: Любительский многоголосый, закадровый закадровый [AniLibria]
    Роли озвучивали: Eladiel, Silv, Lupin-Режиссёр: Кикути Ясухито, Тосака Син
    Автор оригинала: Юмидзуру Идзуру
    Снято по ранобэ: IS: Infinite Stratos-Описание: Летние каникулы кончились, и десятки красавиц-пилотов, а среди них единственный парень Итика Оримура, снова приступили к занятиям в Небесной академии. Пятеро хорошо знакомых зрителю девушек, ближний круг Оримуры, держат несокрушимую внешнюю оборону и мило разбираются между собой, но любой гарем, как и Вселенная, имеет свойство расширяться! На парня внезапно положила глаз сама Татэнаси Сарасики, президент школьного Совета. Представительница России (!) не только назначила себя личным тренером Итики, но и дала понять, что готова на большее. При всей простоте и доступности, Татэнаси – сильнейший боец молодого поколения, а значит, с ней так просто не поспоришь! Впрочем, нет худа без добра. Хороший тренер главному герою не помешает – ведь Оримура-младший пока что силен лишь в ближнем бою, а в снайперских действиях и стратегическом мышлении рассчитывает на коллег по «бригаде». Положение серьезное, ибо парнем по-прежнему интересуются разные силы, а защитниц рядом может и не оказаться. Тем более что недавно неизвестные террористы совершили дерзкое нападение на армейскую лабораторию, а значит, охота за сверхсовременными Доспехами вспыхнула с новой силой. А самое страшное будет, если кроме подруг детства у Итики еще и новые родственницы появятся!-Качество: BDRip
    Контейнер: AVI
    Видео: XviD, 720x400 (16:9), 23.976 fps, 1 537 kb/s (0.223 bit/pixel)
    Аудио №1: AC3, 48.0 kHz, 2 ch, 192 kb/s, CBR | | Anilibria
    Аудио №2: AC3, 48.0 kHz, 2 ch, 192 kb/s, CBR | | Japan (Оригинал)
    Субтитры: Русские (внешние) ASS полные--

    Список эпизодов

    1 Сезон
    01. Classmates Are All Girls
    02. Representative Selection Match!
    03. The Transfer Student is a Second Childhood Friend
    04. Decisive Battle! The Class League Match
    05. Boy Meets Boy
    06. My Roommate is a Blond Gentleman
    07. Blue Days / Red Switch
    08. Find Out My Mind
    09. Ocean`s Eleven!
    10. Thin Red Line
    11. Get Ready
    12. Your Name Is
    OVA 01
    Бесконечные небеса OVA / IS: Infinite Stratos Encore - Koi ni Kogareru Rokujuusou
    2 Сезон
    01. Летние воспоминания
    02. Болеутоляющее для сердца
    03. Хрустальный звон каблучка Золушки
    04. Таинственная леди
    05. Красиво
    06. Тайная база
    07. Сёстры
    08. Открой своё сердце
    09. Быть героем
    10. Приготавливая свой путь
    11. В поисках воспоминаний
    12. Девичник
    OVA 02
    Бесконечные Небеса | IS: Infinite Stratos Encore - Koi ni Kogareru Rokujuusou

    MediaInfo

    General
    Complete name : [Deadmau- RAWS] Бесконечные.небеса.S01.2011.Rus.JAP.BDRip.Deadmauvlad.Ep.01.avi
    Format : AVI
    Format/Info : Audio Video Interleave
    File size : 335 MiB
    Duration : 24 min 10 s
    Overall bit rate : 1 935 kb/s
    Director : Encoder by Deadmauvlad
    Writing application : VirtualDubMod 1.5.10.3 | www.virtualdub-fr.org || (build 2550/release)
    Writing library : VirtualDubMod build 2550/release
    Copyright : Encoder by Deadmauvlad
    Video
    ID : 0
    Format : MPEG-4 Visual
    Format profile : Advanced Simple@L5
    Format settings : BVOP1 / Custom Matrix
    Format settings, BVOP : 1
    Format settings, QPel : No
    Format settings, GMC : No warppoints
    Format settings, Matrix : Custom
    Codec ID : XVID
    Codec ID/Hint : XviD
    Duration : 24 min 10 s
    Bit rate : 1 537 kb/s
    Width : 720 pixels
    Height : 400 pixels
    Display aspect ratio : 16:9
    Frame rate : 23.976 (24000/1001) FPS
    Color space : YUV
    Chroma subsampling : 4:2:0
    Bit depth : 8 bits
    Scan type : Progressive
    Compression mode : Lossy
    Bits/(Pixel*Frame) : 0.223
    Stream size : 266 MiB (79%)
    Writing library : XviD 73
    Audio #1
    ID : 1
    Format : AC-3
    Format/Info : Audio Coding 3
    Commercial name : Dolby Digital
    Codec ID : 2000
    Duration : 24 min 9 s
    Bit rate mode : Constant
    Bit rate : 192 kb/s
    Channel(s) : 2 channels
    Channel layout : L R
    Sampling rate : 48.0 kHz
    Frame rate : 31.250 FPS (1536 SPF)
    Bit depth : 16 bits
    Compression mode : Lossy
    Stream size : 33.2 MiB (10%)
    Alignment : Split accross interleaves
    Interleave, duration : 42 ms (1.00 video frame)
    Interleave, preload duration : 500 ms
    Audio #2
    ID : 2
    Format : AC-3
    Format/Info : Audio Coding 3
    Commercial name : Dolby Digital
    Codec ID : 2000
    Duration : 24 min 10 s
    Bit rate mode : Constant
    Bit rate : 192 kb/s
    Channel(s) : 2 channels
    Channel layout : L R
    Sampling rate : 48.0 kHz
    Frame rate : 31.250 FPS (1536 SPF)
    Bit depth : 16 bits
    Compression mode : Lossy
    Stream size : 33.2 MiB (10%)
    Alignment : Split accross interleaves
    Interleave, duration : 42 ms (1.00 video frame)
    Interleave, preload duration : 500 ms

    _________________
    Показать сообщения:    
    Главная  Аниме  Сериалы  Аниме Сериалы

    Текущее время: 31-Окт 01:15

    Часовой пояс: UTC + 5



    Вы не можете начинать темы
    Вы не можете отвечать на сообщения
    Вы не можете редактировать свои сообщения
    Вы не можете удалять свои сообщения
    Вы не можете голосовать в опросах
    Вы не можете прикреплять файлы к сообщениям
    Вы не можете скачивать файлы