Поезд в Пусан 2: Полуостров / Train to Busan 2 (Сан Хо Ён) [2020, Ужасы, триллер, боевик, WEB-DL 1080p] MVO (Mallorn Studio) :: UZTOR.PW Лучший трекер в зоне TAS-IX!
 
Уважаемые гости сайта! Добро Пожаловать на наш торрент трекер,где Вы можете бесплатно скачать любой Софт,Фильмы,Музыку и многое другое! А так же постоянно ведется набор модераторов и релизеров. Зарегистрируйтесь сейчас, чтобы получить доступ ко всем функциям. После регистрации или входа на сайт вы сможете создавать темы, отвечать на сообщения и скачивать файлы.

Навигация по Торрент раздачам и Форум и Стол заказов и Группы



 Поезд в Пусан 2: Полуостров / Train to Busan 2 (Сан Хо Ён) [2020, Ужасы, триллер, боевик, WEB-DL 1080p] MVO (Mallorn Studio)

Главная  Кинофильмы  Азиатские кинофильмы
Статистика раздачи
Скачал: [ 1 ]
 
     
 
 
 
Автор Сообщение
  • Создавать темы 27-Авг-2020 16:35

    Поезд в Пусан 2: Полуостров / Train to Busan 2-- Год выхода: 2020
    Страна: Корея Южная
    Студия: Movic Comics, Next Entertainment World, RedPeter Film
    Жанр: ужасы, триллер, боевик
    Продолжительность: 01:55:50
    Перевод: Любительский (многоголосый, закадровый) | Mallorn Studio-Режиссер: Сан Хо Ён-В ролях: Дон Вон Кан, Чон Хён Ли, Рэ Ли, Хэ Хё Квон, Мин Чжэ Ким (I), Гё Хван Ку, До Юн Ким, Ё Вон Ли, Гю Бэк Ким, У Чжин Мун, Со Ён Чан, Си Вон Чха, Тхэ Джун Ким, Ён Гён Юн, Мин Сон Ким, Се Джун Пак, Хи Чхоль Син, Дэниэл Джои Олбрайт-О фильме: Через четыре года после вспышки страшного вируса, распространение которого Южная Корея сдержать не смогла, то, что осталось от страны, находится в блокаде, а полчища зомби разгуливают по всему полуострову. Бывший военный в составе спецотряда отправляется в закрытую зону, чтобы отыскать припрятанные деньги, и теперь ему предстоит пробираться по жуткому миру, где помимо означенной угрозы опасность представляют и люди, устраивающие жестокие игры на выживание.-Качество: WEB-DL 1080p
    Формат: MKV
    Видео: AVC, 1920x1080 (16:9), 23.976 fps ~ 4757 Kbps
    Аудио №1: AC3, 48 KHz, 6 ch ~ 640 Kb/s (русский)
    Аудио №2: AC3, 48 KHz, 6 ch ~ 384 Kb/s (корейский)
    Субтитры: корейские (hardsub на английскую речь), русские, английские--

    MI

    Общее
    Уникальный идентификатор : 242273929135671771401867918647508706523 (0xB64442F0CA69CB6BA37096939D35A4DB)
    Полное имя : J:wotTrain.to.Busan.2.WEB-DL.AVC.1080p_Mallorn.mkv
    Формат : Matroska
    Версия формата : Version 4
    Размер файла : 4,68 Гбайт
    Продолжительность : 1 ч. 55 м.
    Общий поток : 5 784 Кбит/сек
    Дата кодирования : UTC 2020-08-26 21:10:51
    Программа кодирования : mkvmerge v7.7.0 ('Six Voices') 32bit built on Feb 28 2015 23:23:00
    Библиотека кодирования : libebml v1.3.1 + libmatroska v1.4.2
    Видео
    Идентификатор : 1
    Формат : AVC
    Формат/Информация : Advanced Video Codec
    Профиль формата : High@L4
    Настройки формата : CABAC / 2 Ref Frames
    Параметр CABAC формата : Да
    Параметр RefFrames формата : 2 кадра
    Идентификатор кодека : V_MPEG4/ISO/AVC
    Продолжительность : 1 ч. 55 м.
    Битрейт : 4 757 Кбит/сек
    Ширина : 1 920 пикселей
    Высота : 1 080 пикселей
    Соотношение сторон : 16:9
    Режим частоты кадров : Постоянный
    Частота кадров : 23,976 (24000/1001) кадра/сек
    Цветовое пространство : YUV
    Субдискретизация насыщенности : 4:2:0
    Битовая глубина : 8 бит
    Тип развёртки : Прогрессивная
    Бит/(Пиксели*Кадры) : 0.096
    Размер потока : 3,85 Гбайт (82%)
    Библиотека кодирования : x264 core 155 r2901 7d0ff22
    Язык : Korean
    Default : Да
    Forced : Нет
    Цветовой диапазон : Limited
    Основные цвета : BT.709
    Характеристики трансфера : BT.709
    Коэффициенты матрицы : BT.709
    Аудио #1
    Идентификатор : 2
    Формат : AC-3
    Формат/Информация : Audio Coding 3
    Коммерческое название : Dolby Digital
    Идентификатор кодека : A_AC3
    Продолжительность : 1 ч. 55 м.
    Вид битрейта : Постоянный
    Битрейт : 640 Кбит/сек
    Каналы : 6 каналов
    Channel layout : L R C LFE Ls Rs
    Частота : 48,0 КГц
    Частота кадров : 31,250 кадров/сек (1536 SPF)
    Метод сжатия : С потерями
    Размер потока : 530 Мбайт (11%)
    Заголовок : Mallorn
    Язык : Russian
    Service kind : Complete Main
    Default : Да
    Forced : Нет
    Аудио #2
    Идентификатор : 3
    Формат : AC-3
    Формат/Информация : Audio Coding 3
    Коммерческое название : Dolby Digital
    Идентификатор кодека : A_AC3
    Продолжительность : 1 ч. 55 м.
    Вид битрейта : Постоянный
    Битрейт : 384 Кбит/сек
    Каналы : 6 каналов
    Channel layout : L R C LFE Ls Rs
    Частота : 48,0 КГц
    Частота кадров : 31,250 кадров/сек (1536 SPF)
    Метод сжатия : С потерями
    Размер потока : 318 Мбайт (7%)
    Язык : Korean
    Service kind : Complete Main
    Default : Нет
    Forced : Нет
    Текст #1
    Идентификатор : 4
    Формат : UTF-8
    Идентификатор кодека : S_TEXT/UTF8
    Идентификатор кодека/Информация : UTF-8 Plain Text
    Продолжительность : 16 м. 49 с.
    Битрейт : 0 бит/сек
    Count of elements : 3
    Размер потока : 111 байт (0%)
    Заголовок : надписи
    Язык : Russian
    Default : Да
    Forced : Нет
    Текст #2
    Идентификатор : 5
    Формат : UTF-8
    Идентификатор кодека : S_TEXT/UTF8
    Идентификатор кодека/Информация : UTF-8 Plain Text
    Продолжительность : 1 ч. 50 м.
    Битрейт : 46 бит/сек
    Count of elements : 947
    Размер потока : 37,7 Кбайт (0%)
    Заголовок : Mallorn
    Язык : Russian
    Default : Нет
    Forced : Нет
    Текст #3
    Идентификатор : 6
    Формат : UTF-8
    Идентификатор кодека : S_TEXT/UTF8
    Идентификатор кодека/Информация : UTF-8 Plain Text
    Продолжительность : 1 ч. 49 м.
    Битрейт : 24 бит/сек
    Count of elements : 852
    Размер потока : 19,4 Кбайт (0%)
    Язык : English
    Default : Нет
    Forced : Нет
    Текст #4
    Идентификатор : 7
    Формат : UTF-8
    Идентификатор кодека : S_TEXT/UTF8
    Идентификатор кодека/Информация : UTF-8 Plain Text
    Продолжительность : 1 ч. 49 м.
    Битрейт : 30 бит/сек
    Count of elements : 1012
    Размер потока : 24,2 Кбайт (0%)
    Язык : English
    Default : Нет
    Forced : Нет

    _________________
    Показать сообщения:    
    Главная  Кинофильмы  Азиатские кинофильмы

    Текущее время: 01-Ноя 06:20

    Часовой пояс: UTC + 5



    Вы не можете начинать темы
    Вы не можете отвечать на сообщения
    Вы не можете редактировать свои сообщения
    Вы не можете удалять свои сообщения
    Вы не можете голосовать в опросах
    Вы не можете прикреплять файлы к сообщениям
    Вы не можете скачивать файлы