Поцелуй Сестёр / KissXsis [TV-1 + OVA] [24 из 24] (Мунэнори Нава) [2008-2010, гарем, комедия, повседневность, школа, этти, BDRip] MVO (Shiza Project), DVO (OpenDub) :: UZTOR.PW Лучший трекер в зоне TAS-IX!
 
Уважаемые гости сайта! Добро Пожаловать на наш торрент трекер,где Вы можете бесплатно скачать любой Софт,Фильмы,Музыку и многое другое! А так же постоянно ведется набор модераторов и релизеров. Зарегистрируйтесь сейчас, чтобы получить доступ ко всем функциям. После регистрации или входа на сайт вы сможете создавать темы, отвечать на сообщения и скачивать файлы.

Навигация по Торрент раздачам и Форум и Стол заказов и Группы



 Поцелуй Сестёр / KissXsis [TV-1 + OVA] [24 из 24] (Мунэнори Нава) [2008-2010, гарем, комедия, повседневность, школа, этти, BDRip] MVO (Shiza Project), DVO (OpenDub)

Главная  Аниме  Сериалы  Аниме Сериалы
Статистика раздачи
Скачал: [ 1 ]
 
     
 
 
 
Автор Сообщение
  • Создавать темы 27-Авг-2020 03:00

    Поцелуй Сестёр / KissXsis--Год выхода: 2008-2010
    Студия:Feel
    Страна: Япония/Japan
    Жанр: гарем, комедия, повседневность, школа, этти
    Сезон: TV-1 + OVA
    Продолжительность: 24 серий x 00:25:00 [S01+OVA]
    Перевод №1: Любительский (многоголосый, закадровый) | Dancel, Daelit, Лизавета, Bvia, Saylot [Shiza Project] (OVA)
    Перевод №2: Любительский Двухголосый закадровый - DJATOM & comina [OpenDub] (TV-1)
    Перевод №3: Субтитры + Оригинал-Режиссер: Мунэнори Нава
    Автор оригинала: Дитама Бо-В ролях: Асами Имаи, Ёрико Нагата, Аяна Такэтацу, Кэн Такэути, Тацуми Юико, Огамэ Асука-Описание: 16-летний Кэйта Суминоэ с детства живет с двумя старшими сестрами: близняшками Ако и Рико. Вся проблема в том, что родичи они сводные, по крови не связанные, и со временем сестринские чувства Ако и Рико к милому Кэйте претерпели э-э… возрастную эволюцию. Более того, собственные отец и мать активно поощряют это стремление и настаивают, чтобы Кэйта тщательно «изучил вопрос», прежде чем сделать окончательный выбор. Разумеется, веселые сестренки только «за» и со своей стороны готовы всячески облегчить и оптимизировать процесс. Вот и пойми – то ли завидовать парню, то ли сочувствовать? До поры до времени Кэйта спасался от близняшек в средней школе, разряжая напряжение на тренировках по легкой атлетике. Но вот пришла пора идти в старшую, и, конечно же, выбор родителей пал на школу Гакусю, которую уже посещают старшие сестры. Парень понял, что возражать бесполезно и принялся за подготовку к вступительным экзаменам и укрепление духа. Хотя крепись, не крепись, а мудрые не зря говорят, что капля камень точит, а уж две сестры – тем более!-Качество: BDRip
    Контейнер: AVI
    Видео: XviD, 720x400 (16:9), 23.976 fps, 1 396 kb/s (0.202 bit/pixel)
    Аудио №1: AC-3, 48,0 КГц, 2 ch, 192 /сек, CBR | | Shiza Project / Opendub
    Аудио №2: AC-3, 48,0 КГц, 2 ch, 192 /сек, CBR | | Japan (Оригинал)
    Русские Субтитры: Есть в раздаче (Полный Перевод)--

    Хронология

    #1 KissXsis OVA - OVA (12 эп.), адаптация манги, 2008 ✔ (Есть в раздаче)
    #2 >>>KissXsis TV - ТВ (12 эп.), адаптация манги, 2010 ✔ (Есть в раздаче)

    Эпизоды

    Первый Сезон
    1 Wonderful Days
    2 A Lesson Just for Two
    3 Alluring Sweets!
    4 Qualifications of a Lover
    5 I`m Sorry!
    6 Uneasiness at Akihabara
    7 Wh-What!? A Dripping Wet Midsummer Delusion
    8 August is All About That
    9 When Times are Tough, Pray to the Gods
    10 At Last, the Real Thing!
    11 Nitpicking a Good Day!
    12 One, Two`s, Threesome!
    OVA
    00. Начать с нуля
    01. Под одной крышей
    02. Рождественская вечеринка
    03. Секретная практика
    04. Наслаждаясь горячими источниками
    05. Поглощенный замешательством
    06. Ммм... Медицинский осмотр!
    07. Сильнейший дьяволенок
    08. Насыщенное посещение учеников
    09. Схожу с ума от юности
    10. Разноцветный взгляд со стороны
    11. Сохранить хорошие отношения

    MediaInfo

    Общее
    Полное имя : [Deadmau- RAWS] Kiss.x.Sis.2008.OVA.RUS.JAP.BDRip.Deadmauvlad.Ep.00.avi
    Формат : AVI
    Формат/Информация : Audio Video Interleave
    Размер файла : 295 Мбайт
    Продолжительность : 24 м. 19 с.
    Общий поток : 1694 Кбит/сек
    Название фильма : [Deadmau- RAWS] Поцелуй.сестёр.2008.OVA.RUS.JAP.BDRip.Deadmauvlad.Серия.00
    Режиссёр : Encoder by Deadmauvlad
    Жанр : этти, эротика, школа
    Программа кодирования : VirtualDubMod 1.5.10.3 | www.virtualdub-fr.org || (build 2550/release)
    Формат оригинала/Имя : Аниме
    Авторское право : Encoder by Deadmauvlad
    Примечание : Encoder by Deadmauvlad
    Видео
    Идентификатор : 0
    Формат : MPEG-4 Visual
    Профиль формата : Advanced Simple@L5
    Настройки формата : BVOP1 / Custom Matrix
    Параметр BVOP формата : 1
    Параметр QPel формата : Нет
    Параметр GMC формата : Без точки перехода
    Параметр матрицы формата : Выборочная
    Идентификатор кодека : XVID
    Идентификатор кодека/Подсказка : XviD
    Продолжительность : 24 м. 19 с.
    Битрейт : 1295 Кбит/сек
    Ширина : 720 пикселей
    Высота : 400 пикселей
    Соотношение сторон : 16:9
    Частота кадров : 23,976 (24000/1001) кадра/сек
    Цветовое пространство : YUV
    Субдискретизация насыщенности : 4:2:0
    Битовая глубина : 8 бит
    Тип развёртки : Прогрессивная
    Метод сжатия : С потерями
    Бит/(Пиксели*Кадры) : 0.188
    Размер потока : 225 Мбайт (76%)
    Библиотека кодирования : XviD 73
    Аудио #1
    Идентификатор : 1
    Формат : AC-3
    Формат/Информация : Audio Coding 3
    Коммерческое название : Dolby Digital
    Идентификатор кодека : 2000
    Продолжительность : 24 м. 19 с.
    Вид битрейта : Постоянный
    Битрейт : 192 Кбит/сек
    Каналы : 2 канала
    ChannelLayout : L R
    Частота : 48,0 КГц
    Частота кадров : 31,250 кадров/сек (1536 SPF)
    Метод сжатия : С потерями
    Размер потока : 33,4 Мбайт (11%)
    Выравнивание : Разделение по промежуткам
    Продолжительность промежутка : 42 мс. (1,00 видеокадр)
    Время предзагрузки промежутка : 500 мс.
    Аудио #2
    Идентификатор : 2
    Формат : AC-3
    Формат/Информация : Audio Coding 3
    Коммерческое название : Dolby Digital
    Идентификатор кодека : 2000
    Продолжительность : 24 м. 19 с.
    Вид битрейта : Постоянный
    Битрейт : 192 Кбит/сек
    Каналы : 2 канала
    ChannelLayout : L R
    Частота : 48,0 КГц
    Частота кадров : 31,250 кадров/сек (1536 SPF)
    Метод сжатия : С потерями
    Размер потока : 33,4 Мбайт (11%)
    Выравнивание : Разделение по промежуткам
    Продолжительность промежутка : 42 мс. (1,00 видеокадр)
    Время предзагрузки промежутка : 500 мс.

    _________________
    Показать сообщения:    
    Главная  Аниме  Сериалы  Аниме Сериалы

    Текущее время: 01-Ноя 06:32

    Часовой пояс: UTC + 5



    Вы не можете начинать темы
    Вы не можете отвечать на сообщения
    Вы не можете редактировать свои сообщения
    Вы не можете удалять свои сообщения
    Вы не можете голосовать в опросах
    Вы не можете прикреплять файлы к сообщениям
    Вы не можете скачивать файлы