Бедствие ли это? / Sounan desu ka? [TV-1] [12 из 12] (Нагаяма Нобуёси) [2019, Драма, комедия, приключения, сэйнэн, этти, BDRip] MVO (Crunchyroll) :: UZTOR.PW Лучший трекер в зоне TAS-IX!
 
Уважаемые гости сайта! Добро Пожаловать на наш торрент трекер,где Вы можете бесплатно скачать любой Софт,Фильмы,Музыку и многое другое! А так же постоянно ведется набор модераторов и релизеров. Зарегистрируйтесь сейчас, чтобы получить доступ ко всем функциям. После регистрации или входа на сайт вы сможете создавать темы, отвечать на сообщения и скачивать файлы.

Навигация по Торрент раздачам и Форум и Стол заказов и Группы



 Бедствие ли это? / Sounan desu ka? [TV-1] [12 из 12] (Нагаяма Нобуёси) [2019, Драма, комедия, приключения, сэйнэн, этти, BDRip] MVO (Crunchyroll)

Главная  Аниме  Сериалы  Аниме Сериалы
Статистика раздачи
Нет
 
     
 
 
 
Автор Сообщение
  • Создавать темы 27-Авг-2020 02:03

    Бедствие ли это? / Sounan desu ka?--Выпуск: с 2 июля 2019 по 17 сентября 2019
    Страна: Япония
    Студия: Ezola и Studio Blanc.
    Жанр: драма, комедия, приключения, сэйнэн, этти
    Тип: TV-сериал
    Продолжительность: 12 серий x ~ 00:12:00
    Возрастное ограничение: 14+
    Перевод: Профессиональный (Многоголосый Закадровый) [Crunchyroll]-Автор: Окамото Кэнтаро
    Снято по манге: Бедствие ли это?
    Режиссер: Нагаяма Нобуёси-В главных ролях: Мао Итимити, Хиёри Коно, Адзуми Ваки, Киёно Ясуно, Акио Оцука-Описание: Школьная поездка на море для 4 школьниц обернулось самой настоящей катастрофой, и нет, никто из них не забыл взять с собой зубную щетку и никому из них не признался парень, как обычно это бывает в ванильной романтике. На этот раз на головы старшеклассниц упали самые настоящие уроки по выживанию и без какой-либо подготовки они приступили к практике, потому что выжить на небольшом плоту посреди океана можно либо с профессионалом, либо в ожидании помощи. К счастью в их небольшой компании зачесался бывалый не раз в подобных передрягах солдат, Онишима Хамаре, дочь известного путешественника и мастера по выживанию в дикой местности. Без лишних слов, первым делом нужно позаботиться о питьевой воде. Шокирующим для обычных старшеклассниц образом Онишима позаботилась об этом, но на предложение утолить жажду ее спутницы на отрез отказались пить. Оставшись на небольшом плоту в ожидании помощи, девушки решили поспать, а, очнувшись от сна, они заметили необитаемый остров, на котором можно переждать бедствие. Но бедствие ли это, когда у них под рукой такой профессионал?
    Это короткое и незатейливое аниме с элементами фансервиса и... немного шокирующих сцен, не самое лучшее для просмотра во время еды, но познавательное для тех, кто не знает как вести себя во время попадания в катастрофу.-Качество: BDRip
    Формат: .AVI
    Видео: XviD, 720x400 (16:9), 23.976 fps, 1 475 kb/s (0.214 bit/pixel)
    Аудио №1: AC3, 48.0 kHz, 2 ch, 192 kb/s, CBR | | Crunchyroll
    Аудио №2: AC3, 48.0 kHz, 2 ch, 192 kb/s, CBR| | Japan (Оригинал)
    Субтитры: Русские (Полные)--

    Эпизоды

    01. По воле волн
    02. Наш первый обед
    03. Хозяйка острова
    04. Ловушка
    05. Странная раковина
    06. Вкус кролика
    07. Изучение острова
    08. Оазис?!
    09. Папа Хомарэ
    10. Медоносная пчела
    11. Мы её спасём
    12. Восполняем запасы воды

    MediaInfo

    General
    Complete name : [Deadmau- RAWS] Бедствие.ли.это.S01.RUS.JAP.BDRip.Deadmauvlad.Ep.01.avi
    Format : AVI
    Format/Info : Audio Video Interleave
    File size : 168 MiB
    Duration : 12 min 32 s
    Overall bit rate : 1 873 kb/s
    Director : Encoder by Deadmauvlad
    Writing application : VirtualDubMod 1.5.10.3 | www.virtualdub-fr.org || (build 2550/release)
    Writing library : VirtualDubMod build 2550/release
    Copyright : Encoder by Deadmauvlad
    Video
    ID : 0
    Format : MPEG-4 Visual
    Format profile : Advanced Simple@L5
    Format settings : BVOP1 / Custom Matrix
    Format settings, BVOP : 1
    Format settings, QPel : No
    Format settings, GMC : No warppoints
    Format settings, Matrix : Custom
    Codec ID : XVID
    Codec ID/Hint : XviD
    Duration : 12 min 32 s
    Bit rate : 1 475 kb/s
    Width : 720 pixels
    Height : 400 pixels
    Display aspect ratio : 16:9
    Frame rate : 23.976 (24000/1001) FPS
    Color space : YUV
    Chroma subsampling : 4:2:0
    Bit depth : 8 bits
    Scan type : Progressive
    Compression mode : Lossy
    Bits/(Pixel*Frame) : 0.214
    Stream size : 132 MiB (79%)
    Writing library : XviD 73
    Audio #1
    ID : 1
    Format : AC-3
    Format/Info : Audio Coding 3
    Commercial name : Dolby Digital
    Codec ID : 2000
    Duration : 12 min 32 s
    Bit rate mode : Constant
    Bit rate : 192 kb/s
    Channel(s) : 2 channels
    Channel layout : L R
    Sampling rate : 48.0 kHz
    Frame rate : 31.250 FPS (1536 SPF)
    Bit depth : 16 bits
    Compression mode : Lossy
    Stream size : 17.2 MiB (10%)
    Alignment : Split accross interleaves
    Interleave, duration : 42 ms (1.00 video frame)
    Interleave, preload duration : 500 ms
    Audio #2
    ID : 2
    Format : AC-3
    Format/Info : Audio Coding 3
    Commercial name : Dolby Digital
    Codec ID : 2000
    Duration : 12 min 32 s
    Bit rate mode : Constant
    Bit rate : 192 kb/s
    Channel(s) : 2 channels
    Channel layout : L R
    Sampling rate : 48.0 kHz
    Frame rate : 31.250 FPS (1536 SPF)
    Bit depth : 16 bits
    Compression mode : Lossy
    Stream size : 17.2 MiB (10%)
    Alignment : Split accross interleaves
    Interleave, duration : 42 ms (1.00 video frame)
    Interleave, preload duration : 500 ms

    _________________
    Показать сообщения:    
    Главная  Аниме  Сериалы  Аниме Сериалы

    Текущее время: 26-Окт 08:35

    Часовой пояс: UTC + 5



    Вы не можете начинать темы
    Вы не можете отвечать на сообщения
    Вы не можете редактировать свои сообщения
    Вы не можете удалять свои сообщения
    Вы не можете голосовать в опросах
    Вы не можете прикреплять файлы к сообщениям
    Вы не можете скачивать файлы