Мастера меча онлайн: Альтернативная призрачная пуля / Sword Art Online: Alternative Gun Gale Online [12 из 12] (Сакой Масаюки) [2018, Триллер, фантастика, драма, BDRip-HEVC 1080p] DUB (StudioBand), MVO (Kansai, AniLibria) :: UZTOR.PW Лучший трекер в зоне TAS-IX!
 
Уважаемые гости сайта! Добро Пожаловать на наш торрент трекер,где Вы можете бесплатно скачать любой Софт,Фильмы,Музыку и многое другое! А так же постоянно ведется набор модераторов и релизеров. Зарегистрируйтесь сейчас, чтобы получить доступ ко всем функциям. После регистрации или входа на сайт вы сможете создавать темы, отвечать на сообщения и скачивать файлы.

Навигация по Торрент раздачам и Форум и Стол заказов и Группы



 Мастера меча онлайн: Альтернативная призрачная пуля / Sword Art Online: Alternative Gun Gale Online [12 из 12] (Сакой Масаюки) [2018, Триллер, фантастика, драма, BDRip-HEVC 1080p] DUB (StudioBand), MVO (Kansai, AniLibria)

Главная  Аниме  Сериалы  Аниме Сериалы (HD)
Статистика раздачи
Нет
 
     
 
 
 
Автор Сообщение
  • Создавать темы 26-Авг-2020 22:53

    --Год выхода: 2018
    Страна: Япония
    Студия: Studio 3Hz
    Жанр: триллер, фантастика, драма
    Продолжительность: 00:23:40
    Перевод:
      Дубляж (Wakanim)
      Профессиональный многоголосый (Kansai)
      Любительский многоголосый (AniLibria)
    -Режиссер: Сакой Масаюки-В ролях: Ёко Хикаса, Кадзуюки Окицу, Акасаки Тинацу, Томори Кусуноки-О фильме: Виртуальная онлайн игра «Мастера Меча Онлайн» вызвала волну негодования и протестов после обнародования СМИ информации о том, что гибель персонажа внутри игры приводила к гибели человека в реальности. Этот скандал привёл практически к краху зарождавшейся индустрии виртуальных компьютерных игр. Однако появление пакета обновлений призванных полностью обезопасить пользователей от хакерских атак во время игры, привело к новому всплеску популярности данного вида развлечения. В результате этого всё новые и новые игры стали появляться с бешеной скоростью. Одна из таких игр нашла преданных фанатов, благодаря мрачному миру и битвами между игроками при помощи стрелковых орудий и мечей. И название данной сверхпопулярной онлайн игры - Призрачная пуля.-Качество: BDRip-HEVC 1080p
    Формат: MKV
    Видео: HEVC/x265, 1920x1080, 5456 kbps, 23.976 fps
    Звук (Rus(int)): AC-3, 192 kbps, 48,0 KHz, 2 ch | [Wakanim]
    Звук (Rus(int)): AC-3, 192 kbps, 48,0 KHz, 2 ch | [Kansai]
    Звук (Rus(int)): AC-3, 192 kbps, 48,0 KHz, 2 ch | [AniLibria]
    Звук (Japanese): AC-3, 192 kbps, 48,0 KHz, 2 ch | [Original]
    Субтитры: русские (встроенные полный перевод, ASS)--

    MediaInfo

    Общее
    Уникальный идентификатор : 174763506409105225148982575897668323492 (0x837A3A1DD906A35B5E8BCDCE52D188A4)
    Полное имя : F:\Anime\Sword Art Online Alternative Gun Gale Online [x265]\Sword Art Online Alternative Gun Gale Online 01 [x265].mkv
    Формат : Matroska
    Версия формата : Version 4
    Размер файла : 1,03 Гбайт
    Продолжительность : 23 м. 40 с.
    Общий поток : 6 211 Кбит/сек
    Дата кодирования : UTC 2019-06-23 04:40:35
    Программа кодирования : mkvmerge v34.0.0 ('Sight and Seen') 64-bit
    Библиотека кодирования : libebml v1.3.7 + libmatroska v1.5.0
    Attachments : OpenSans-Semibold.ttf
    Видео
    Идентификатор : 1
    Формат : HEVC
    Формат/Информация : High Efficiency Video Coding
    Профиль формата : Main 10@L4@Main
    Идентификатор кодека : V_MPEGH/ISO/HEVC
    Продолжительность : 23 м. 36 с.
    Битрейт : 5 456 Кбит/сек
    Ширина : 1 920 пикселей
    Высота : 1 080 пикселей
    Соотношение сторон : 16:9
    Режим частоты кадров : Постоянный
    Частота кадров : 23,976 (24000/1001) кадра/сек
    Цветовое пространство : YUV
    Субдискретизация насыщенности : 4:2:0
    Битовая глубина : 10 бит
    Бит/(Пиксели*Кадры) : 0.110
    Размер потока : 921 Мбайт (88%)
    Заголовок : BDrip by Jensen
    Библиотека кодирования : x265 3.0+6-fef398f390d7:[DJATOM's Mod][Windows][MSVC 1916][64 bit] 10bit
    Настройки программы : cpuid=1049583 / frame-threads=16 / numa-pools=16,16 / wpp / no-pmode / no-pme / no-psnr / no-ssim / log-level=2 / csv / csv-log-level=2 / input-csp=1 / input-res=1920x1080 / interlace=0 / total-frames=33952 / level-idc=0 / high-tier=1 / uhd-bd=0 / ref=4 / no-allow-non-conformance / no-repeat-headers / annexb / no-aud / no-hrd / info / hash=0 / no-temporal-layers / open-gop / min-keyint=23 / keyint=240 / gop-lookahead=0 / bframes=9 / b-adapt=2 / b-pyramid / bframe-bias=0 / rc-lookahead=20 / lookahead-slices=6 / scenecut=40 / radl=0 / no-splice / no-intra-refresh / ctu=64 / min-cu-size=8 / no-rect / no-amp / max-tu-size=32 / tu-inter-depth=2 / tu-intra-depth=2 / limit-tu=0 / rdoq-level=2 / dynamic-rd=0.00 / no-ssim-rd / signhide / no-tskip / nr-intra=0 / nr-inter=0 / no-constrained-intra / strong-intra-smoothing / max-merge=2 / limit-refs=3 / limit-modes / me=2 / subme=5 / merange=48 / temporal-mvp / weightp / weightb / no-analyze-src-pics / deblock=1:-1 / no-sao / no-sao-non-deblock / rd=4 / no-early-skip / no-rskip / no-fast-intra / no-tskip-fast / no-cu-lossless / no-b-intra / no-splitrd-skip / rdpenalty=0 / psy-rd=2.00 / psy-rdoq=4.00 / no-rd-refine / no-lossless / cbqpoffs=-2 / crqpoffs=-2 / rc=crf / crf=15.0 / qcomp=0.72 / qpstep=4 / stats-write=0 / stats-read=0 / ipratio=1.40 / pbratio=1.30 / aq-mode=3 / aq-strength=0.85 / no-cutree / zone-count=0 / no-strict-cbr / qg-size=32 / no-rc-grain / qpmax=69 / qpmin=0 / no-const-vbv / sar=1 / overscan=0 / videoformat=5 / range=0 / colorprim=1 / transfer=1 / colormatrix=1 / chromaloc=0 / display-window=0 / max-cll=0,0 / min-luma=0 / max-luma=1023 / log2-max-poc-lsb=8 / vui-timing-info / vui-hrd-info / slices=1 / no-opt-qp-pps / no-opt-ref-list-length-pps / no-multi-pass-opt-rps / scenecut-bias=0.05 / no-opt-cu-delta-qp / no-aq-motion / no-hdr / no-hdr-opt / no-dhdr10-opt / no-idr-recovery-sei / analysis-reuse-level=5 / scale-factor=0 / refine-intra=0 / refine-inter=0 / refine-mv=0 / refine-ctu-distortion=0 / no-limit-sao / ctu-info=0 / no-lowpass-dct / refine-analysis-type=0 / copy-pic=1 / max-ausize-factor=1.0 / no-dynamic-refine / no-single-sei / hevc-aq / qp-adaptation-range=2.00
    Язык : Japanese
    Default : Да
    Forced : Нет
    Цветовой диапазон : Limited
    Основные цвета : BT.709
    Характеристики трансфера : BT.709
    Коэффициенты матрицы : BT.709
    Аудио #1
    Идентификатор : 2
    Формат : AC-3
    Формат/Информация : Audio Coding 3
    Коммерческое название : Dolby Digital
    Идентификатор кодека : A_AC3
    Продолжительность : 23 м. 40 с.
    Вид битрейта : Постоянный
    Битрейт : 192 Кбит/сек
    Каналы : 2 канала
    Channel layout : L R
    Частота : 48,0 КГц
    Частота кадров : 31,250 кадров/сек (1536 SPF)
    Метод сжатия : С потерями
    Размер потока : 32,5 Мбайт (3%)
    Заголовок : StudioBand
    Язык : Russian
    Service kind : Complete Main
    Default : Да
    Forced : Нет
    Аудио #2
    Идентификатор : 3
    Формат : AC-3
    Формат/Информация : Audio Coding 3
    Коммерческое название : Dolby Digital
    Идентификатор кодека : A_AC3
    Продолжительность : 23 м. 36 с.
    Вид битрейта : Постоянный
    Битрейт : 192 Кбит/сек
    Каналы : 2 канала
    Channel layout : L R
    Частота : 48,0 КГц
    Частота кадров : 31,250 кадров/сек (1536 SPF)
    Метод сжатия : С потерями
    Размер потока : 32,4 Мбайт (3%)
    Заголовок : Kansai
    Язык : Russian
    Service kind : Complete Main
    Default : Нет
    Forced : Нет
    Аудио #3
    Идентификатор : 4
    Формат : AC-3
    Формат/Информация : Audio Coding 3
    Коммерческое название : Dolby Digital
    Идентификатор кодека : A_AC3
    Продолжительность : 23 м. 40 с.
    Вид битрейта : Постоянный
    Битрейт : 192 Кбит/сек
    Каналы : 2 канала
    Channel layout : L R
    Частота : 48,0 КГц
    Частота кадров : 31,250 кадров/сек (1536 SPF)
    Метод сжатия : С потерями
    Размер потока : 32,5 Мбайт (3%)
    Заголовок : AniLibria
    Язык : Russian
    Service kind : Complete Main
    Default : Нет
    Forced : Нет
    Аудио #4
    Идентификатор : 5
    Формат : AC-3
    Формат/Информация : Audio Coding 3
    Коммерческое название : Dolby Digital
    Идентификатор кодека : A_AC3
    Продолжительность : 23 м. 40 с.
    Вид битрейта : Постоянный
    Битрейт : 192 Кбит/сек
    Каналы : 2 канала
    Channel layout : L R
    Частота : 48,0 КГц
    Частота кадров : 31,250 кадров/сек (1536 SPF)
    Метод сжатия : С потерями
    Размер потока : 32,5 Мбайт (3%)
    Заголовок : Original
    Язык : Japanese
    Service kind : Complete Main
    Default : Нет
    Forced : Нет
    Текст #1
    Идентификатор : 6
    Формат : ASS
    Идентификатор кодека : S_TEXT/ASS
    Идентификатор кодека/Информация : Advanced Sub Station Alpha
    Продолжительность : 4 с. 590 мс.
    Битрейт : 207 бит/сек
    Count of elements : 1
    Метод сжатия : Без потерь
    Размер потока : 119 байт (0%)
    Заголовок : Надписи
    Язык : Russian
    Default : Да
    Forced : Нет
    Текст #2
    Идентификатор : 7
    Формат : ASS
    Идентификатор кодека : S_TEXT/ASS
    Идентификатор кодека/Информация : Advanced Sub Station Alpha
    Продолжительность : 23 м. 37 с.
    Битрейт : 168 бит/сек
    Count of elements : 345
    Метод сжатия : Без потерь
    Размер потока : 29,2 Кбайт (0%)
    Заголовок : Полные субтитры
    Язык : Russian
    Default : Нет
    Forced : Нет
    Меню
    00:00:00.000 : en:Avant
    00:01:28.005 : en:OP
    00:02:58.053 : en:Part A
    00:12:16.069 : en:Part B
    00:22:05.074 : en:ED

    _________________
    Показать сообщения:    
    Главная  Аниме  Сериалы  Аниме Сериалы (HD)

    Текущее время: 26-Окт 09:31

    Часовой пояс: UTC + 5



    Вы не можете начинать темы
    Вы не можете отвечать на сообщения
    Вы не можете редактировать свои сообщения
    Вы не можете удалять свои сообщения
    Вы не можете голосовать в опросах
    Вы не можете прикреплять файлы к сообщениям
    Вы не можете скачивать файлы