Мастера меча онлайн: Алисизация - Война Андерворлда / Sword Art Online: Alicization - War of Underworld [TV-4] [12 из 12] (Оно Манабу) [2019, Приключения, фантастика, романтика, драма, BDRip-HEVC 1080p] DUB (StudioBand), MVO (AniLibria) :: UZTOR.PW Лучший трекер в зоне TAS-IX!
 
Уважаемые гости сайта! Добро Пожаловать на наш торрент трекер,где Вы можете бесплатно скачать любой Софт,Фильмы,Музыку и многое другое! А так же постоянно ведется набор модераторов и релизеров. Зарегистрируйтесь сейчас, чтобы получить доступ ко всем функциям. После регистрации или входа на сайт вы сможете создавать темы, отвечать на сообщения и скачивать файлы.

Навигация по Торрент раздачам и Форум и Стол заказов и Группы



 Мастера меча онлайн: Алисизация - Война Андерворлда / Sword Art Online: Alicization - War of Underworld [TV-4] [12 из 12] (Оно Манабу) [2019, Приключения, фантастика, романтика, драма, BDRip-HEVC 1080p] DUB (StudioBand), MVO (AniLibria)

Главная  Аниме  Сериалы  Аниме Сериалы (HD)
Статистика раздачи
Нет
 
     
 
 
 
Автор Сообщение
  • Создавать темы 26-Авг-2020 22:35

    Мастера меча онлайн: Алисизация - Война Андерворлда
    Sword Art Online: Alicization - War of Underworld
    --
    Год выхода: 2019
    Страна: Япония
    Студия: A-1 Pictures
    Жанр: Приключения, фантастика, романтика, драма
    Продолжительность: 00:23:40
    Перевод:
      Дубляж | StudioBand [Wakanim]
      Любительский многоголосый (закадровый) | AniLibria
    -Режиссер: Оно Манабу-Автор оригинала: Кавахара Рэки
    Снято по ранобэ: Sword Art Online
    Возрастное ограничение: 14+-В ролях: Ёсицугу Мацуока, Харука Томацу, Ито Канаэ, Аяна Такэтацу, Миюки Савасиро, Аяхи Такагаки, Рина Хидака, Синъя Такахаси, Хироки Ясумото, Соитиро Хоси-О фильме: Кирито, Юджио и Алиса. Прошло полгода с того дня, когда два элитных курсанта и один рыцарь единства одолели Первосвященницу Администратор. После битвы Алиса вернулась на родину, в деревню Рулид. Под одной с ней крышей живёт Кирито, потерявший лучшего друга, руку и душу. Алиса самоотверженно ухаживает за ним, но в ней больше не осталось рыцарской решимости. — Скажи, Кирито... Что мне делать? Тем временем неумолимо истекает время до фазы окончательного стресс-теста, который грозит всему Андерворлду ужасным катаклизмом. В преддверии трагедии в глубине Дарк Территори возвращается на престол бог тьмы Вектор. Он встаёт во главе армии тьмы и начинает наступление на мир людей, чтобы пленить некую жрицу света. Командир рыцарей единства Беркули, возглавивший оборону мира людей, решает сразиться с армией Дарк Территори в битве доселе неслыханных масштабов. Но пока что рядом с ним нет ни Алисы, ни двух героев, недавно спасших Андерворлд. Грядёт самая длинная и самая прекрасная битва Sword Art Online. Настало время завершить цикл «Алисизация»!-Качество: BDRip-HEVC 1080p
    Формат: MKV
    Видео: HEVC/x265, 1920x1080, 1933 kbps, 23.976 fps
    Звук (Rus(int)): AC-3, 192 kbps, 48,0 KHz, 2 ch | [StudioBand]
    Звук (Rus(int)): AC-3, 192 kbps, 48,0 KHz, 2 ch | [AniLibria]
    Звук (Japanese): AC-3, 192 kbps, 48,1 KHz, 2 ch | [Original]
    Субтитры: русские (встроенные полный перевод, ASS)--

    Хронология

    #1 Мастера меча онлайн [ТВ-1] - ТВ (25 эп. + спэшлы), адаптация ранобэ, 2012
    #2 Мастера меча онлайн: Послесловие - ТВ-спэшл (1 эп. + OVA), продолжение, 2013
    #3 Мастера меча онлайн [ТВ-2] - ТВ (25 эп. + спэшлы), продолжение, 2014
    #4 Мастера меча онлайн: Порядковый ранг (фильм) - п/ф, адаптация ранобэ, 2017
    #5 Мастера меча онлайн: Алисизация [ТВ-1] - ТВ (24 эп.), продолжение, 2018
    #6 >>>Мастера меча онлайн: Алисизация - Война в Подмирье [ТВ-1] - ТВ (12 эп.), продолжение, 2019 (Эта раздача)
    #7 Мастера меча онлайн: Алисизация - Война в Подмирье [ТВ-2] - ТВ (11 эп.), продолжение, 2020
    #8 Мастера меча онлайн: Альтернативная «Призрачная пуля» - ТВ (12 эп.), адаптация ранобэ, 2018
    #9 Sword Art Online: Fatal Bullet - The Third Episode - ТВ-спэшл, адаптация игры, 2018

    MediaInfo

    Общее
    Уникальный идентификатор : 147007075967363190842638423624408919873 (0x6E9888705818F527DA6C88C191C46F41)
    Полное имя : F:\Anime\Sword Art Online Alicization War of Underworld\Sword Art Online Alicization War of Underworld 01.mkv
    Формат : Matroska
    Версия формата : Version 4
    Размер файла : 426 Мбайт
    Продолжительность : 23 м. 42 с.
    Общий поток : 2 510 Кбит/сек
    Дата кодирования : UTC 2020-07-22 09:38:16
    Программа кодирования : mkvmerge v48.0.0 ('Fortress Around Your Heart') 64-bit
    Библиотека кодирования : libebml v1.4.0 + libmatroska v1.6.0
    Видео
    Идентификатор : 1
    Формат : HEVC
    Формат/Информация : High Efficiency Video Coding
    Профиль формата : Main 10@L4@Main
    Идентификатор кодека : V_MPEGH/ISO/HEVC
    Продолжительность : 23 м. 42 с.
    Битрейт : 1 933 Кбит/сек
    Ширина : 1 920 пикселей
    Высота : 1 080 пикселей
    Соотношение сторон : 16:9
    Режим частоты кадров : Постоянный
    Частота кадров : 23,976 (24000/1001) кадра/сек
    Цветовое пространство : YUV
    Субдискретизация насыщенности : 4:2:0
    Битовая глубина : 10 бит
    Бит/(Пиксели*Кадры) : 0.039
    Размер потока : 328 Мбайт (77%)
    Default : Да
    Forced : Нет
    Аудио #1
    Идентификатор : 2
    Формат : AC-3
    Формат/Информация : Audio Coding 3
    Коммерческое название : Dolby Digital
    Идентификатор кодека : A_AC3
    Продолжительность : 23 м. 39 с.
    Вид битрейта : Постоянный
    Битрейт : 192 Кбит/сек
    Каналы : 2 канала
    Channel layout : L R
    Частота : 48,0 КГц
    Частота кадров : 31,250 кадров/сек (1536 SPF)
    Метод сжатия : С потерями
    Размер потока : 32,5 Мбайт (8%)
    Заголовок : StudioBand
    Язык : Russian
    Service kind : Complete Main
    Default : Да
    Forced : Нет
    Аудио #2
    Идентификатор : 3
    Формат : AC-3
    Формат/Информация : Audio Coding 3
    Коммерческое название : Dolby Digital
    Идентификатор кодека : A_AC3
    Продолжительность : 23 м. 40 с.
    Вид битрейта : Постоянный
    Битрейт : 192 Кбит/сек
    Каналы : 2 канала
    Channel layout : L R
    Частота : 48,0 КГц
    Частота кадров : 31,250 кадров/сек (1536 SPF)
    Метод сжатия : С потерями
    Размер потока : 32,5 Мбайт (8%)
    Заголовок : AniLibria
    Язык : Russian
    Service kind : Complete Main
    Default : Нет
    Forced : Нет
    Аудио #3
    Идентификатор : 4
    Формат : AC-3
    Формат/Информация : Audio Coding 3
    Коммерческое название : Dolby Digital
    Идентификатор кодека : A_AC3
    Продолжительность : 23 м. 42 с.
    Вид битрейта : Постоянный
    Битрейт : 192 Кбит/сек
    Каналы : 2 канала
    Channel layout : L R
    Частота : 48,0 КГц
    Частота кадров : 31,250 кадров/сек (1536 SPF)
    Метод сжатия : С потерями
    Размер потока : 32,5 Мбайт (8%)
    Заголовок : Original
    Язык : Japanese
    Service kind : Complete Main
    Default : Нет
    Forced : Нет
    Текст #1
    Идентификатор : 5
    Формат : ASS
    Идентификатор кодека : S_TEXT/ASS
    Идентификатор кодека/Информация : Advanced Sub Station Alpha
    Продолжительность : 23 м. 38 с.
    Битрейт : 3 бит/сек
    Count of elements : 7
    Метод сжатия : Без потерь
    Размер потока : 663 байт (0%)
    Заголовок : Надписи
    Язык : Russian
    Default : Да
    Forced : Нет
    Текст #2
    Идентификатор : 6
    Формат : ASS
    Идентификатор кодека : S_TEXT/ASS
    Идентификатор кодека/Информация : Advanced Sub Station Alpha
    Продолжительность : 23 м. 38 с.
    Битрейт : 130 бит/сек
    Count of elements : 276
    Метод сжатия : Без потерь
    Размер потока : 22,7 Кбайт (0%)
    Заголовок : Полные субтитры
    Язык : Russian
    Default : Нет
    Forced : Нет
    Меню #1
    00:00:00.033 : en:Intro
    00:01:12.980 : en:OP
    00:02:43.020 : en:Episode
    00:23:34.980 : en:Preview
    Меню #2
    00:00:00.033 : en:Intro
    00:01:12.960 : en:OP
    00:02:43.010 : en:Episode
    00:23:34.980 : en:Preview

    _________________
    Показать сообщения:    
    Главная  Аниме  Сериалы  Аниме Сериалы (HD)

    Текущее время: 26-Окт 08:43

    Часовой пояс: UTC + 5



    Вы не можете начинать темы
    Вы не можете отвечать на сообщения
    Вы не можете редактировать свои сообщения
    Вы не можете удалять свои сообщения
    Вы не можете голосовать в опросах
    Вы не можете прикреплять файлы к сообщениям
    Вы не можете скачивать файлы