Школа-тюрьма / Kangoku Gakuen: Prison School [TV-1 + OVA] [13 из 13] (Мидзусима Цутому) [2015-2016, Комедия, этти, школа, BDRip] MVO (Shiza Project) | Без Цензуры :: UZTOR.PW Лучший трекер в зоне TAS-IX!
 
Уважаемые гости сайта! Добро Пожаловать на наш торрент трекер,где Вы можете бесплатно скачать любой Софт,Фильмы,Музыку и многое другое! А так же постоянно ведется набор модераторов и релизеров. Зарегистрируйтесь сейчас, чтобы получить доступ ко всем функциям. После регистрации или входа на сайт вы сможете создавать темы, отвечать на сообщения и скачивать файлы.

Навигация по Торрент раздачам и Форум и Стол заказов и Группы



 Школа-тюрьма / Kangoku Gakuen: Prison School [TV-1 + OVA] [13 из 13] (Мидзусима Цутому) [2015-2016, Комедия, этти, школа, BDRip] MVO (Shiza Project) | Без Цензуры

Главная  Аниме  Сериалы  Аниме Сериалы
Статистика раздачи
Нет
 
     
 
 
 
Автор Сообщение
  • Создавать темы 26-Авг-2020 09:33

    Школа-тюрьма / Kangoku Gakuen: Prison School--Год выхода: 2015-2016
    Страна: Япония
    Студия: J.C. Staff
    Жанр: комедия, этти, школа
    Продолжительность: 13 х ~ 00:25:00
    Перевод: Любительский многоголосый закадровый GreyMoon , Gomer, Snowly, Oni, Chigusa, NesTea [Shiza Project]-Возрастное ограничение: 18+ [Запрещено для детей]
    Цензура: Отсутствует
    -Автор оригинала: Хирамото Акира
    Снято по манге: Prison School
    Режиссер: Мидзусима Цутому-В ролях: Хироси Камия, Кацуюки Кониси, Кэнъити Судзумура, Дайсукэ Намикава, Кадзуюки Окицу, Саяка Охара, Сидзука Ито, Кана Ханадзава, Тинами Хасимото, Ё Тайти, Кэйдзи Фудзивара, Ами Косимидзу-О фильме: В частной женской академии имени Хачимитсу не так давно произошли изменения - она стала смешанной. Случилось это после смены директора школы по непонятным причинам. Все девочки были в шоке и конечно же не одобряли такие нововведения. Но деваться было некуда. К счастью, сформировавшийся авторитет школы не привлёк в новом году множества мальчишек. Дело в том, что академия Хачимитсу славится своим жёстким нравом и строгими правилам. Зачастую её называют тюрьмой.
    Но всё таки несколько ребят отважились и поступили. Да... всего их было пятеро, на всю школу... а девушек 1016. Можно подумать, что ребята попали в настоящий гарем, где на одного юношу приходятся 200 девушек, но не тут то было. Парни были очень застенчивыми и даже боялись столкнутся с девушкой взглядом на огромном расстоянии друг от друга. А когда у них окончательно заиграли гормоны, ребята решили на рискованную операцию под кодовым названием "Подглядывание". Как и ожидалось, они облажались, попавшись в руки подпольного учсовета, который отвечает за соблюдения нравственных правил этой академии. Теперь пошляков ждёт самое суровое наказание...-Качество: BDRip / DVDRip (OVA)
    Формат: .AVI
    Видео: Xvid, 720x400 (16:9), 23.976 fps, 1 498 kb/s (0.217 bit/pixel)
    Аудио №1: AC3, 48.0 kHz, 2 ch, 192 kb/s, CBR | | Shiza
    Аудио №2: AC3, 48.0 kHz, 2 ch, 192 kb/s, CBR| | Japan (Оригинал)
    Субтитры: Русские (Полные)--

    Эпизоды

    01. Подглядывание.
    02. Мужчина, видевший слишком много.
    03. Могучий взрыв.
    04. Забери меня в страну сумо.
    05. Самый коварный мужчина в школе.
    06. Месть Ханы.
    07. Изысканный ресторан Мейко.
    08. Дневник Андрея.
    09. В самом соку.
    10. Такая дерьмовая жизнь.
    11. Грибочек Брокович.
    12. С добрым утром, тюрьма!
    13. Школа-Тюрьма ОВА

    Хронология

    #1 Prison School - ТВ (12 эп.) адаптация манги 2015 год.
    #2 >>>Prison School OVA (1 эп.) продолжение 2016 год.
    #3 Dorei Nikki 3D [HENTAI] (3 эп.) gamerips 2014 год.

    MediaInfo

    General
    Complete name : [Deadmau- RAWS] Школа.Тюрьма.2015.RUS.JAP.BDRip.Deadmauvlad.Серия.01.avi
    Format : AVI
    Format/Info : Audio Video Interleave
    File size : 335 MiB
    Duration : 24 min 42 s
    Overall bit rate : 1 897 kb/s
    Director : Encoder by Deadmauvlad
    Writing application : VirtualDubMod 1.5.10.3 | www.virtualdub-fr.org || (build 2550/release)
    Writing library : VirtualDubMod build 2550/release
    Copyright : Encoder by Deadmauvlad
    Video
    ID : 0
    Format : MPEG-4 Visual
    Format profile : Advanced Simple@L5
    Format settings : BVOP1 / Custom Matrix
    Format settings, BVOP : 1
    Format settings, QPel : No
    Format settings, GMC : No warppoints
    Format settings, Matrix : Custom
    Codec ID : XVID
    Codec ID/Hint : XviD
    Duration : 24 min 42 s
    Bit rate : 1 498 kb/s
    Width : 720 pixels
    Height : 400 pixels
    Display aspect ratio : 16:9
    Frame rate : 23.976 (24000/1001) FPS
    Color space : YUV
    Chroma subsampling : 4:2:0
    Bit depth : 8 bits
    Scan type : Progressive
    Compression mode : Lossy
    Bits/(Pixel*Frame) : 0.217
    Stream size : 265 MiB (79%)
    Writing library : XviD 73
    Audio #1
    ID : 1
    Format : AC-3
    Format/Info : Audio Coding 3
    Commercial name : Dolby Digital
    Codec ID : 2000
    Duration : 24 min 42 s
    Bit rate mode : Constant
    Bit rate : 192 kb/s
    Channel(s) : 2 channels
    Channel layout : L R
    Sampling rate : 48.0 kHz
    Frame rate : 31.250 FPS (1536 SPF)
    Bit depth : 16 bits
    Compression mode : Lossy
    Stream size : 33.9 MiB (10%)
    Alignment : Split accross interleaves
    Interleave, duration : 42 ms (1.00 video frame)
    Interleave, preload duration : 500 ms
    Audio #2
    ID : 2
    Format : AC-3
    Format/Info : Audio Coding 3
    Commercial name : Dolby Digital
    Codec ID : 2000
    Duration : 24 min 42 s
    Bit rate mode : Constant
    Bit rate : 192 kb/s
    Channel(s) : 2 channels
    Channel layout : L R
    Sampling rate : 48.0 kHz
    Frame rate : 31.250 FPS (1536 SPF)
    Bit depth : 16 bits
    Compression mode : Lossy
    Stream size : 33.9 MiB (10%)
    Alignment : Split accross interleaves
    Interleave, duration : 42 ms (1.00 video frame)
    Interleave, preload duration : 500 ms

    _________________
    Показать сообщения:    
    Главная  Аниме  Сериалы  Аниме Сериалы

    Текущее время: 01-Ноя 06:56

    Часовой пояс: UTC + 5



    Вы не можете начинать темы
    Вы не можете отвечать на сообщения
    Вы не можете редактировать свои сообщения
    Вы не можете удалять свои сообщения
    Вы не можете голосовать в опросах
    Вы не можете прикреплять файлы к сообщениям
    Вы не можете скачивать файлы