Школьные войны / Ikkitousen [TV 1-4 + OVA + Спешл] [73 из 73] (Коити Охата, Такаси Ватанабэ, Сюндзи Ёсида) [2003-2019, Боевые искусства, комедия, школа, этти, BDRip] MVO (MC Entertainment), AVO/DVO (AniDUB) | Без Цензуры :: UZTOR.PW Лучший трекер в зоне TAS-IX!
 
Уважаемые гости сайта! Добро Пожаловать на наш торрент трекер,где Вы можете бесплатно скачать любой Софт,Фильмы,Музыку и многое другое! А так же постоянно ведется набор модераторов и релизеров. Зарегистрируйтесь сейчас, чтобы получить доступ ко всем функциям. После регистрации или входа на сайт вы сможете создавать темы, отвечать на сообщения и скачивать файлы.

Навигация по Торрент раздачам и Форум и Стол заказов и Группы



 Школьные войны / Ikkitousen [TV 1-4 + OVA + Спешл] [73 из 73] (Коити Охата, Такаси Ватанабэ, Сюндзи Ёсида) [2003-2019, Боевые искусства, комедия, школа, этти, BDRip] MVO (MC Entertainment), AVO/DVO (AniDUB) | Без Цензуры

Главная  Аниме  Сериалы  Аниме Сериалы
Статистика раздачи
Нет
 
     
 
 
 
Автор Сообщение
  • Создавать темы 24-Авг-2020 19:01

    Школьные войны / Ikkitousen--Год выхода: с 30 июля 2003 по 27 февраля 2019
    Студия: J.C.Staff, Studio ARMS, TNK
    Страна: Япония/Japan
    Жанр: боевые искусства, комедия, школа, этти
    Перевод №1: Профессиональный (многоголосый, закадровый) MC Entertainment | Лицензия [S01]
    Перевод: Любительский Одноголосый закадровый - Cuba77 [AniDub] [S02]
    Перевод №2: Любительский Многоголосый закадровый - Misterx, Mantikhora (01-xx серии), Sajuri (04-хх серии) & shalu ARRU [S03 + Спешелы]
    Перевод №3: Любительский Двухголосый закадровый - Shina, Yukio [S04]
    Перевод №4: Любительский Двухголосый закадровый - NikaLenina & MCShamaN [AniDub] (Кровавые хроники школьных войн)
    Перевод №5: Любительский Многоголосый закадровый - BalFor, Nika Lenina, Гамлетка Цезаревна, 9ый Неизвестный, Трина Дубовицкая, Cuba77 (OVA Фееричная эпоха)
    Перевод №6:Любительский Многоголосый закадровый - Berserk, Inferno_Phantom, Mirona, Nika Lenina (OVA Западные волки 2019 год)
    Перевод №7: Субтитры [S01-04+OVA] + Спешелы
    Продолжительность: 49 серий x 00:24:00 [S01-04] + 03 серий x ~ 00:28:00 + 01 серия x ~ 00:44:00 + 02 серия x ~ 00:25:00 + 18 серий x ~ 00:03:00 [Спешелы]-Возрастное ограничение: 18+ [Запрещено для детей]
    Цензура: Отсутствует-Режиссер: Коити Охата, Такаси Ватанабэ, Сюндзи Ёсида-В ролях: Юко Каида, Масуми Асано, Сатоси Хино, Кикуко Иноуэ, Кэи Синдо, Хитоми Набатамэ, Минори Тихара, Хадзимэ Иидзима, Акэно Ватанабэ, Юи Хориэ-Описание: Хакуфу Сонсаку - жизнерадостная простоватая девчонка со сногсшибательной фигурой. И одновременно - тренированный боец, укладывающий на лопатки самых мощных противников! Возможно, именно Хакуфу предстоит поставить точку в истории конфликта, охватившего школы в районе Канто. События из истории древнего Китая, легендарной эпохи Троецарствия, повторяются в современной Японии - но теперь вместо армий под началом знаменитых военачальников борьбу ведут несколько школ, чьи воспитанники сходятся в рукопашных схватках, расширяя границы традиционных восточных единоборств!-Качество: BDRip
    Контейнер: AVI
    Кодек: XviD
    Видео: 720x528 (4:3), 23.976 fps, 1 551 kb/s (0.170 bit/pixel) [S01]
    Видео: 720x400 (16:9), 23.976 fps, 1 572 kb/s (0.228 bit/pixel) [S02-04+ OVA's]
    Аудио №1: AC-3, 48,0 КГц, 2 ch, 192 /сек, CBR | | Тех. данные идентичны для всех озвучек
    Аудио №2: AC-3, 48,0 КГц, 2 ch, 192 /сек, CBR | | Japan (Оригинал)
    Русские Субтитры: Есть в раздаче (Полный Перевод)--

    Хронология

    #1 Школьные войны (сезон первый) - ТВ (13 эп.), адаптация манги, 2003 ✔ (Есть в раздаче)
    #2 Школьные войны (сезон второй) - ТВ (12 эп. + спэшлы), продолжение, 2007 ✔ (Есть в раздаче)
    #3 Школьные войны (сезон третий) - ТВ (12 эп. + спэшлы), продолжение, 2008 ✔ (Есть в раздаче)
    #4 Школьные войны (сезон четвертый) - ТВ (12 эп. + спэшлы), продолжение, 2010 ✔ (Есть в раздаче)
    #5 Школьные войны OVA-1 - OVA (1 эп.), продолжение, 2011 ✔ (Есть в раздаче)
    #6 Школьные войны OVA-2 - OVA (2 эп.), продолжение, 2014 ✔ (Есть в раздаче)
    #7 >>>Школьные войны OVA-3 - OVA, продолжение, 2019 ✔ (Есть в раздаче)

    MediaInfo

    General
    Complete name : S01 [MVO MC Entertainment][Deadmau- RAWS] Школьные.войны.S01.RUS.JAP.BDRip.Deadmauvlad.Ep.01.avi
    Format : AVI
    Format/Info : Audio Video Interleave
    File size : 334 MiB
    Duration : 23 min 57 s
    Overall bit rate : 1 950 kb/s
    Movie name : [Deadmau- RAWS] Школьные.войны.S01.RUS.JAP.BDRip.Deadmauvlad.Ep.01
    Director : Encoder by Deadmauvlad
    Genre : боевые искусства, школа, этти
    Writing application : VirtualDubMod 1.5.10.3 | www.virtualdub-fr.org || (build 2550/release)
    Original source form/Name : Аниме
    Copyright : Encoder by Deadmauvlad
    Comment : Encoder by Deadmauvlad
    Video
    ID : 0
    Format : MPEG-4 Visual
    Format profile : Advanced Simple@L5
    Format settings : BVOP1 / Custom Matrix
    Format settings, BVOP : 1
    Format settings, QPel : No
    Format settings, GMC : No warppoints
    Format settings, Matrix : Custom
    Codec ID : XVID
    Codec ID/Hint : XviD
    Duration : 23 min 57 s
    Bit rate : 1 551 kb/s
    Width : 720 pixels
    Height : 528 pixels
    Display aspect ratio : 4:3
    Frame rate : 23.976 (24000/1001) FPS
    Color space : YUV
    Chroma subsampling : 4:2:0
    Bit depth : 8 bits
    Scan type : Progressive
    Compression mode : Lossy
    Bits/(Pixel*Frame) : 0.170
    Stream size : 266 MiB (80%)
    Writing library : XviD 73
    Audio #1
    ID : 1
    Format : AC-3
    Format/Info : Audio Coding 3
    Commercial name : Dolby Digital
    Codec ID : 2000
    Duration : 23 min 57 s
    Bit rate mode : Constant
    Bit rate : 192 kb/s
    Channel(s) : 2 channels
    Channel layout : L R
    Sampling rate : 48.0 kHz
    Frame rate : 31.250 FPS (1536 SPF)
    Bit depth : 16 bits
    Compression mode : Lossy
    Stream size : 32.9 MiB (10%)
    Alignment : Split accross interleaves
    Interleave, duration : 42 ms (1.00 video frame)
    Interleave, preload duration : 500 ms
    Service kind : Complete Main
    Audio #2
    ID : 2
    Format : AC-3
    Format/Info : Audio Coding 3
    Commercial name : Dolby Digital
    Codec ID : 2000
    Duration : 23 min 57 s
    Bit rate mode : Constant
    Bit rate : 192 kb/s
    Channel(s) : 2 channels
    Channel layout : L R
    Sampling rate : 48.0 kHz
    Frame rate : 31.250 FPS (1536 SPF)
    Bit depth : 16 bits
    Compression mode : Lossy
    Delay relative to video : 1 s 50 ms
    Stream size : 32.9 MiB (10%)
    Alignment : Split accross interleaves
    Interleave, duration : 42 ms (1.00 video frame)
    Interleave, preload duration : 500 ms
    Service kind : Complete Main
    S02
    General
    Complete name : S02 [Cuba 77][Deadmau- RAWS] Школьные.войны.S02.RUS.JAP.BDRip.Deadmauvlad.Ep.01.avi
    Format : AVI
    Format/Info : Audio Video Interleave
    File size : 334 MiB
    Duration : 23 min 41 s
    Overall bit rate : 1 970 kb/s
    Movie name : [Deadmau- RAWS] Школьные.войны.S02.RUS.JAP.BDRip.Deadmauvlad.Ep.01
    Director : Encoder by Deadmauvlad
    Genre : боевые искусства, школа, этти
    Writing application : VirtualDubMod 1.5.10.3 | www.virtualdub-fr.org || (build 2550/release)
    Original source form/Name : Аниме
    Copyright : Encoder by Deadmauvlad
    Comment : Encoder by Deadmauvlad
    Video
    ID : 0
    Format : MPEG-4 Visual
    Format profile : Advanced Simple@L5
    Format settings : BVOP1 / Custom Matrix
    Format settings, BVOP : 1
    Format settings, QPel : No
    Format settings, GMC : No warppoints
    Format settings, Matrix : Custom
    Codec ID : XVID
    Codec ID/Hint : XviD
    Duration : 23 min 41 s
    Bit rate : 1 572 kb/s
    Width : 720 pixels
    Height : 400 pixels
    Display aspect ratio : 16:9
    Frame rate : 23.976 (24000/1001) FPS
    Color space : YUV
    Chroma subsampling : 4:2:0
    Bit depth : 8 bits
    Scan type : Progressive
    Compression mode : Lossy
    Bits/(Pixel*Frame) : 0.228
    Stream size : 266 MiB (80%)
    Writing library : XviD 73
    Audio #1
    ID : 1
    Format : MPEG Audio
    Format version : Version 1
    Format profile : Layer 3
    Codec ID : 55
    Codec ID/Hint : MP3
    Duration : 23 min 39 s
    Bit rate mode : Constant
    Bit rate : 192 kb/s
    Channel(s) : 2 channels
    Sampling rate : 48.0 kHz
    Compression mode : Lossy
    Stream size : 32.5 MiB (10%)
    Alignment : Aligned on interleaves
    Interleave, duration : 42 ms (1.00 video frame)
    Interleave, preload duration : 504 ms
    Writing library : LAME3.99.5
    Audio #2
    ID : 2
    Format : AC-3
    Format/Info : Audio Coding 3
    Commercial name : Dolby Digital
    Codec ID : 2000
    Duration : 23 min 41 s
    Bit rate mode : Constant
    Bit rate : 192 kb/s
    Channel(s) : 2 channels
    Channel layout : L R
    Sampling rate : 48.0 kHz
    Frame rate : 31.250 FPS (1536 SPF)
    Bit depth : 16 bits
    Compression mode : Lossy
    Delay relative to video : 1 s 50 ms
    Stream size : 32.5 MiB (10%)
    Alignment : Split accross interleaves
    Interleave, duration : 42 ms (1.00 video frame)
    Interleave, preload duration : 500 ms
    Service kind : Complete Main

    _________________
    Показать сообщения:    
    Главная  Аниме  Сериалы  Аниме Сериалы

    Текущее время: 01-Ноя 07:07

    Часовой пояс: UTC + 5



    Вы не можете начинать темы
    Вы не можете отвечать на сообщения
    Вы не можете редактировать свои сообщения
    Вы не можете удалять свои сообщения
    Вы не можете голосовать в опросах
    Вы не можете прикреплять файлы к сообщениям
    Вы не можете скачивать файлы