BBC: Внутри человеческого тела / Inside the Human Body (Гидеон Брэдшоу, Нат Шарман) [2011, Документальный, BDRemux 1080i] :: UZTOR.PW Лучший трекер в зоне TAS-IX!
 
Уважаемые гости сайта! Добро Пожаловать на наш торрент трекер,где Вы можете бесплатно скачать любой Софт,Фильмы,Музыку и многое другое! А так же постоянно ведется набор модераторов и релизеров. Зарегистрируйтесь сейчас, чтобы получить доступ ко всем функциям. После регистрации или входа на сайт вы сможете создавать темы, отвечать на сообщения и скачивать файлы.

Навигация по Торрент раздачам и Форум и Стол заказов и Группы



 BBC: Внутри человеческого тела / Inside the Human Body (Гидеон Брэдшоу, Нат Шарман) [2011, Документальный, BDRemux 1080i]

Главная  Документальные фильмы и телепередачи  BBC
Статистика раздачи
Нет
 
     
 
 
 
Автор Сообщение
  • Создавать темы 21-Авг-2020 23:26

    BBC: Внутри человеческого тела / Inside the Human Body--Год выхода: 2011
    Страна: Великобритания
    Жанр: Документальный
    Продолжительность: 03:18:43
    Перевод: Профессиональный (Одноголосый закадровый)-Режиссёр: Гидеон Брэдшоу, Нат Шарман-О фильме: История о том как вы стали человеком. Вы самое удивительное создание существовавшее на этой планете и причина этого кроется под вашей кожей. Внутри вашего организма существует удивительный динамичный мир. Где бескрайние леса из клеток поглощают свет. Где едва заметные движения вызывают электрические грозы и бурные стремительные потоки крови питают ваш мозг. Это фантастическое путешествие по самому сложному организму на Земле.- -Качество: BDRemux 1080i
    Формат: MKV
    Видео: MPEG-4 AVC, 1920x1080, 23,7 Мбит/с, 25 кадр/с
    Аудио: Русский, DD AC3, 2 канала, 192 Кбит/с--

    Содержание

    Эпизод 1 Зарождение
    Расскажет о последовательности биологических событий, которые приводят к человеческому рождению. Прекрасная компьютерная графика продемонстрирует нам события, которые происходят в организме матери от момента зачатия до момента рождения, от опасной гонки миллионов сперматозоидов к яйцеклетке и до первых делящихся клеток эмбриона. Мы будем наблюдать за парой, ожидающую тройню, а также познакомимся с самыми старыми в мире сиамскими близнецами.
    Эпизод 2 Как вы выживаете
    Показывает, как тело выполняет бесчисленные маленькие чудеса, чтобы остаться в живых. Мы будем свидетелями родов в воде, познакомимся со строением кровеносных сосудов и сердца, а также встретимся с людьми, чьё тело адаптировалось к экстремальным условиям - с Гербертом Ницшем, чемпионом по фридайвингу, который может задерживать дыхание на 9 минут, с Вимом Хофом, известным более как «Ледяной человек», и имеющего 9 мировых рекордов морозоустойчивости, и Дебби Тейлор, которая последние 10 лет питается только чипсами...
    Эпизод 3 Создание мозга
    О развитие мозга от рождения до совершеннолетия. Мы увидим девочку в возрасте одного года, Анжелину Мессинхем, страдающую редким заболеванием - болезнью Стерджа-Вебера. Врачам пришлось удалить ей половину мозга. Узнаем, как учатся видеть под водой мокены, группа цыган из Австронезии. А также узнаем, какие изменения происходят в головном мозге и почему подростки склонны к риску и непродуманным, с точки зрения взрослых, поступкам.
    Эпизод 4 Враждебный мир
    Рассказывает об эффективных способах защиты, которые использует наше тело против враждебного мира, где солнечный свет разрушает наше ДНК и каждый вдох содержит микробы, которые могут убить. Мы познакомимся с чемпионом в одном из самых опасных видов спорта, прыжкам через быка, узнаем, почему работа велокурьера так опасна и как была проведена успешная операция по пересадке целой конечности...

    MediaInfo

    ЧАСТЬ 1 ЗАРОЖДЕНИЕ.mkv
    Формат : Matroska
    Версия формата : Version 4 / Version 2
    Размер файла : 8,36 Гбайт
    Продолжительность : 50 м. 1 с.
    Режим общего битрейта : Переменный
    Общий поток : 23,9 Мбит/сек
    Дата кодирования : UTC 2017-10-24 16:23:50
    Программа кодирования : mkvmerge v17.0.0 ('Be Ur Friend') 64-bit
    Библиотека кодирования : libebml v1.3.5 + libmatroska v1.4.8
    Видео
    Идентификатор : 1
    Формат : AVC
    Формат/Информация : Advanced Video Codec
    Профиль формата : High@L4.1
    Параметр CABAC формата : Да
    Параметр RefFrames формата : 3 кадра
    Идентификатор кодека : V_MPEG4/ISO/AVC
    Продолжительность : 50 м. 1 с.
    Вид битрейта : Переменный
    Битрейт : 23,7 Мбит/сек
    Максимальный битрейт : 32,0 Мбит/сек
    Ширина : 1920 пикселей
    Высота : 1080 пикселей
    Соотношение сторон : 16:9
    Режим частоты кадров : Постоянный
    Частота кадров : 25,000 кадров/сек
    Стандарт вещания : PAL
    Цветовое пространство : YUV
    Субдискретизация насыщенности : 4:2:0
    Битовая глубина : 8 бит
    Тип развёртки : MBAFF
    Бит/(Пиксели*Кадры) : 0.458
    Размер потока : 8,30 Гбайт (99%)
    Default : Да
    Forced : Нет
    Цветовой диапазон : Limited
    Основные цвета : BT.709
    Характеристики трансфера : BT.709
    Коэффициенты матрицы : BT.709
    Аудио
    Идентификатор : 2
    Формат : AC-3
    Формат/Информация : Audio Coding 3
    Параметр Endianness формата : Big
    Идентификатор кодека : A_AC3
    Продолжительность : 50 м. 1 с.
    Вид битрейта : Постоянный
    Битрейт : 192 Кбит/сек
    Каналы : 2 канала
    Расположение каналов : Front: L R
    Частота : 48,0 КГц
    Частота кадров : 31,250 кадров/сек (1536 SPF)
    Битовая глубина : 16 бит
    Метод сжатия : С потерями
    Размер потока : 68,7 Мбайт (1%)
    Default : Да
    Forced : Нет
    ЧАСТЬ 2 КАК ВЫ ВЫЖИВАЕТЕ.mkv
    Формат : Matroska
    Версия формата : Version 4 / Version 2
    Размер файла : 7,71 Гбайт
    Продолжительность : 48 м. 3 с.
    Режим общего битрейта : Переменный
    Общий поток : 23,0 Мбит/сек
    Дата кодирования : UTC 2017-10-24 16:33:37
    Программа кодирования : mkvmerge v17.0.0 ('Be Ur Friend') 64-bit
    Библиотека кодирования : libebml v1.3.5 + libmatroska v1.4.8
    Видео
    Идентификатор : 1
    Формат : AVC
    Формат/Информация : Advanced Video Codec
    Профиль формата : High@L4.1
    Параметр CABAC формата : Да
    Параметр RefFrames формата : 3 кадра
    Идентификатор кодека : V_MPEG4/ISO/AVC
    Продолжительность : 48 м. 3 с.
    Вид битрейта : Переменный
    Битрейт : 22,8 Мбит/сек
    Максимальный битрейт : 32,0 Мбит/сек
    Ширина : 1920 пикселей
    Высота : 1080 пикселей
    Соотношение сторон : 16:9
    Режим частоты кадров : Постоянный
    Частота кадров : 25,000 кадров/сек
    Стандарт вещания : PAL
    Цветовое пространство : YUV
    Субдискретизация насыщенности : 4:2:0
    Битовая глубина : 8 бит
    Тип развёртки : MBAFF
    Бит/(Пиксели*Кадры) : 0.440
    Размер потока : 7,65 Гбайт (99%)
    Default : Да
    Forced : Нет
    Цветовой диапазон : Limited
    Основные цвета : BT.709
    Характеристики трансфера : BT.709
    Коэффициенты матрицы : BT.709
    Аудио
    Идентификатор : 2
    Формат : AC-3
    Формат/Информация : Audio Coding 3
    Параметр Endianness формата : Big
    Идентификатор кодека : A_AC3
    Продолжительность : 48 м. 2 с.
    Вид битрейта : Постоянный
    Битрейт : 192 Кбит/сек
    Каналы : 2 канала
    Расположение каналов : Front: L R
    Частота : 48,0 КГц
    Частота кадров : 31,250 кадров/сек (1536 SPF)
    Битовая глубина : 16 бит
    Метод сжатия : С потерями
    Размер потока : 66,0 Мбайт (1%)
    Default : Да
    Forced : Нет
    ЧАСТЬ 3 СОЗДАНИЕ МОЗГА.mkv
    Формат : Matroska
    Версия формата : Version 4 / Version 2
    Размер файла : 7,98 Гбайт
    Продолжительность : 50 м. 25 с.
    Режим общего битрейта : Переменный
    Общий поток : 22,7 Мбит/сек
    Дата кодирования : UTC 2017-10-24 16:43:33
    Программа кодирования : mkvmerge v17.0.0 ('Be Ur Friend') 64-bit
    Библиотека кодирования : libebml v1.3.5 + libmatroska v1.4.8
    Видео
    Идентификатор : 1
    Формат : AVC
    Формат/Информация : Advanced Video Codec
    Профиль формата : High@L4.1
    Параметр CABAC формата : Да
    Параметр RefFrames формата : 3 кадра
    Идентификатор кодека : V_MPEG4/ISO/AVC
    Продолжительность : 50 м. 24 с.
    Вид битрейта : Переменный
    Битрейт : 22,5 Мбит/сек
    Максимальный битрейт : 32,0 Мбит/сек
    Ширина : 1920 пикселей
    Высота : 1080 пикселей
    Соотношение сторон : 16:9
    Режим частоты кадров : Постоянный
    Частота кадров : 25,000 кадров/сек
    Стандарт вещания : PAL
    Цветовое пространство : YUV
    Субдискретизация насыщенности : 4:2:0
    Битовая глубина : 8 бит
    Тип развёртки : MBAFF
    Бит/(Пиксели*Кадры) : 0.434
    Размер потока : 7,91 Гбайт (99%)
    Default : Да
    Forced : Нет
    Цветовой диапазон : Limited
    Основные цвета : BT.709
    Характеристики трансфера : BT.709
    Коэффициенты матрицы : BT.709
    Аудио
    Идентификатор : 2
    Формат : AC-3
    Формат/Информация : Audio Coding 3
    Параметр Endianness формата : Big
    Идентификатор кодека : A_AC3
    Продолжительность : 50 м. 25 с.
    Вид битрейта : Постоянный
    Битрейт : 192 Кбит/сек
    Каналы : 2 канала
    Расположение каналов : Front: L R
    Частота : 48,0 КГц
    Частота кадров : 31,250 кадров/сек (1536 SPF)
    Битовая глубина : 16 бит
    Метод сжатия : С потерями
    Размер потока : 69,2 Мбайт (1%)
    Default : Да
    Forced : Нет
    ЧАСТЬ 4 ВРАЖДЕБНЫЙ МИР.mkv
    Формат : Matroska
    Версия формата : Version 4 / Version 2
    Размер файла : 8,08 Гбайт
    Продолжительность : 50 м. 15 с.
    Режим общего битрейта : Переменный
    Общий поток : 23,0 Мбит/сек
    Дата кодирования : UTC 2017-10-24 16:53:13
    Программа кодирования : mkvmerge v17.0.0 ('Be Ur Friend') 64-bit
    Библиотека кодирования : libebml v1.3.5 + libmatroska v1.4.8
    Видео
    Идентификатор : 1
    Формат : AVC
    Формат/Информация : Advanced Video Codec
    Профиль формата : High@L4.1
    Параметр CABAC формата : Да
    Параметр RefFrames формата : 3 кадра
    Идентификатор кодека : V_MPEG4/ISO/AVC
    Продолжительность : 50 м. 15 с.
    Вид битрейта : Переменный
    Битрейт : 22,8 Мбит/сек
    Максимальный битрейт : 32,0 Мбит/сек
    Ширина : 1920 пикселей
    Высота : 1080 пикселей
    Соотношение сторон : 16:9
    Режим частоты кадров : Постоянный
    Частота кадров : 25,000 кадров/сек
    Стандарт вещания : PAL
    Цветовое пространство : YUV
    Субдискретизация насыщенности : 4:2:0
    Битовая глубина : 8 бит
    Тип развёртки : MBAFF
    Бит/(Пиксели*Кадры) : 0.441
    Размер потока : 8,02 Гбайт (99%)
    Default : Да
    Forced : Нет
    Цветовой диапазон : Limited
    Основные цвета : BT.709
    Характеристики трансфера : BT.709
    Коэффициенты матрицы : BT.709
    Аудио
    Идентификатор : 2
    Формат : AC-3
    Формат/Информация : Audio Coding 3
    Параметр Endianness формата : Big
    Идентификатор кодека : A_AC3
    Продолжительность : 50 м. 15 с.
    Вид битрейта : Постоянный
    Битрейт : 192 Кбит/сек
    Каналы : 2 канала
    Расположение каналов : Front: L R
    Частота : 48,0 КГц
    Частота кадров : 31,250 кадров/сек (1536 SPF)
    Битовая глубина : 16 бит
    Метод сжатия : С потерями
    Размер потока : 69,0 Мбайт (1%)
    Default : Да
    Forced : Нет

    _________________
    Показать сообщения:    
    Главная  Документальные фильмы и телепередачи  BBC

    Текущее время: 31-Окт 01:05

    Часовой пояс: UTC + 5



    Вы не можете начинать темы
    Вы не можете отвечать на сообщения
    Вы не можете редактировать свои сообщения
    Вы не можете удалять свои сообщения
    Вы не можете голосовать в опросах
    Вы не можете прикреплять файлы к сообщениям
    Вы не можете скачивать файлы