Токийский гуль / Tokyo guru / Tokyo Ghoul (Кэнтаро Хагивара) [2017, Ужасы, боевик, триллер, драма, BDRip 1080p] MVO (HDRezka Studio) :: UZTOR.PW Лучший трекер в зоне TAS-IX!
 
Уважаемые гости сайта! Добро Пожаловать на наш торрент трекер,где Вы можете бесплатно скачать любой Софт,Фильмы,Музыку и многое другое! А так же постоянно ведется набор модераторов и релизеров. Зарегистрируйтесь сейчас, чтобы получить доступ ко всем функциям. После регистрации или входа на сайт вы сможете создавать темы, отвечать на сообщения и скачивать файлы.

Навигация по Торрент раздачам и Форум и Стол заказов и Группы



 Токийский гуль / Tokyo guru / Tokyo Ghoul (Кэнтаро Хагивара) [2017, Ужасы, боевик, триллер, драма, BDRip 1080p] MVO (HDRezka Studio)

Главная  Кинофильмы  Азиатские кинофильмы
Статистика раздачи
Нет
 
     
 
 
 
Автор Сообщение
  • Создавать темы 21-Авг-2020 22:11

    Токийский гуль / Tokyo guru / Tokyo Ghoul--Год выхода: 2017
    Страна: Япония
    Студия: Geek Sight, Shochiku Films Ltd.
    Жанр: Ужасы, боевик, триллер, драма
    Продолжительность: 01:59:56
    Перевод: Профессиональный многоголосый | HDRezka Studio-Режиссер: Кэнтаро Хагивара-В ролях: Масатака Кубота, Фумика Симидзу, Нобуюки Судзуки, Хиёри Сакурада, Ю Аои, Ё Ойзуми, Сёко Аида, Миносукэ Бандо, Данкан, Сэйка Фурухата, Кэнта Хамано, Нодзоми Сасаки (I)-О фильме: Современные люди, особенно, жители мегаполисов слегка позабыли о том, что они обитают в этой реальности не одни. С давних времен среди людей живут могущественные создания – гули, которые внешне практически неотличимы от них. Они сильны, быстры, живучи и кровожадны, что делает из них идеальных охотников на потерявших со временем бдительность людей. И лишь осознание того, что их довольно мало, заставило нелюдей выработать особую тактику маскировки и строгие правила охоты, нарушители которых наказываются или отдаются на расправу борцам с нечистью.-Качество: BDRip 1080p
    Формат: MKV
    Видео: MPEG-4 AVC, 10.0 Mбит/с, 1920x804, 23.976 кадр/с
    Аудио #1: Русский (АС3, 2 ch, 192 Кбит/с, 48.0 KHz) | | HDRezka Studio
    Аудио #2: Японский (АС3, 6 ch, 640 Кбит/с, 48.0 KHz)
    Субтитры: Русские (Full, (GreatGroup & Black Pearl), английские, китайские--

    MediaInfo

    Источник: Tokyo.Ghoul.2017.1080p.BluRay.x264-WiKi
    General
    Unique ID : 255150966818189822112505252168545313094 (0xBFF449EA6F777EE6B5A684E45AA3A146)
    Complete name : Tokyo.Ghoul.2017.BDRip.1080p-WiKi.mkv
    Format : Matroska
    Format version : Version 4
    File size : 9.07 GiB
    Duration : 1 h 59 min
    Overall bit rate : 10.8 Mb/s
    Movie name : Ziqiang @ WiKi
    Encoded date : UTC 2020-04-23 11:31:56
    Writing application : mkvmerge v7.1.0 ('Good Love') 64bit built on Jul 27 2014 13:06:55
    Writing library : libebml v1.3.0 + libmatroska v1.4.1
    Video
    ID : 1
    Format : AVC
    Format/Info : Advanced Video Codec
    Format profile : High@L4.1
    Format settings : CABAC / 5 Ref Frames
    Format settings, CABAC : Yes
    Format settings, Reference fra : 5 frames
    Codec ID : V_MPEG4/ISO/AVC
    Duration : 1 h 59 min
    Bit rate : 10 000 kb/s
    Width : 1 920 pixels
    Height : 804 pixels
    Display aspect ratio : 2.40:1
    Frame rate mode : Constant
    Frame rate : 23.976 (24000/1001) FPS
    Color space : YUV
    Chroma subsampling : 4:2:0
    Bit depth : 8 bits
    Scan type : Progressive
    Bits/(Pixel*Frame) : 0.270
    Stream size : 8.37 GiB (92%)
    Writing library : x264 core 129 r2245+704+36 8e61944 tMod+MixAQ [8-bit@4:2:0 X86_64]
    Encoding settings : cabac=1 / ref=5 / deblock=1:-3:-3 / analyse=0x3:0x133 / me=umh / subme=11 / psy=1 / fade_compensate=0.00 / psy_rd=1.05:0.10 / mixed_ref=1 / me_range=64 / chroma_me=1 / trellis=2 / 8x8dct=1 / cqm=0 / deadzone=21,11 / fast_pskip=0 / chroma_qp_offset=-3 / threads=12 / lookahead_threads=2 / sliced_threads=0 / nr=0 / decimate=1 / interlaced=0 / bluray_compat=0 / constrained_intra=0 / fgo=0 / bframes=8 / b_pyramid=2 / b_adapt=2 / b_bias=0 / direct=3 / weightb=1 / open_gop=0 / weightp=2 / keyint=250 / keyint_min=23 / scenecut=40 / intra_refresh=0 / rc=2pass / mbtree=0 / bitrate=10000 / ratetol=1.0 / qcomp=0.75 / qpmin=0 / qpmax=69 / qpstep=4 / cplxblur=20.0 / qblur=0.5 / ip_ratio=1.40 / pb_ratio=1.30 / aq=1 / aq-strength=0.75 / aq-sensitivity=10.00 / aq-ifactor=1.00 / aq-pfactor=1.00 / aq-bfactor=1.00 / aq2=0
    Language : Japanese
    Default : Yes
    Forced : No
    Audio #1
    ID : 2
    Format : AC-3
    Format/Info : Audio Coding 3
    Commercial name : Dolby Digital
    Codec ID : A_AC3
    Duration : 1 h 59 min
    Bit rate mode : Constant
    Bit rate : 192 kb/s
    Channel(s) : 2 channels
    Channel layout : L R
    Sampling rate : 48.0 kHz
    Frame rate : 31.250 FPS (1536 SPF)
    Compression mode : Lossy
    Stream size : 165 MiB (2%)
    Title : MVO | HDRezka Studio
    Language : Russian
    Service kind : Complete Main
    Default : Yes
    Forced : No
    Audio #2
    ID : 3
    Format : AC-3
    Format/Info : Audio Coding 3
    Commercial name : Dolby Digital
    Codec ID : A_AC3
    Duration : 1 h 59 min
    Bit rate mode : Constant
    Bit rate : 640 kb/s
    Channel(s) : 6 channels
    Channel layout : L R C LFE Ls Rs
    Sampling rate : 48.0 kHz
    Frame rate : 31.250 FPS (1536 SPF)
    Compression mode : Lossy
    Stream size : 549 MiB (6%)
    Language : Japanese
    Service kind : Complete Main
    Default : No
    Forced : No
    Text #1
    ID : 4
    Format : UTF-8
    Codec ID : S_TEXT/UTF8
    Codec ID/Info : UTF-8 Plain Text
    Duration : 1 h 59 min
    Bit rate : 39 b/s
    Count of elements : 756
    Stream size : 34.8 KiB (0%)
    Language : Russian
    Default : No
    Forced : No
    Text #2
    ID : 5
    Format : ASS
    Codec ID : S_TEXT/ASS
    Codec ID/Info : Advanced Sub Station Alpha
    Duration : 1 h 59 min
    Bit rate : 58 b/s
    Count of elements : 757
    Compression mode : Lossless
    Stream size : 51.2 KiB (0%)
    Language : Russian
    Default : No
    Forced : No
    Text #3
    ID : 6
    Format : UTF-8
    Codec ID : S_TEXT/UTF8
    Codec ID/Info : UTF-8 Plain Text
    Duration : 1 h 59 min
    Bit rate : 21 b/s
    Count of elements : 754
    Stream size : 18.6 KiB (0%)
    Language : English
    Default : No
    Forced : No
    Text #4
    ID : 7
    Format : UTF-8
    Codec ID : S_TEXT/UTF8
    Codec ID/Info : UTF-8 Plain Text
    Duration : 1 h 53 min
    Bit rate : 19 b/s
    Count of elements : 747
    Stream size : 16.2 KiB (0%)
    Title : Simplified Chinese
    Language : Chinese
    Default : No
    Forced : No
    Text #5
    ID : 8
    Format : UTF-8
    Codec ID : S_TEXT/UTF8
    Codec ID/Info : UTF-8 Plain Text
    Duration : 1 h 53 min
    Bit rate : 19 b/s
    Count of elements : 747
    Stream size : 16.2 KiB (0%)
    Title : Traditional Chinese
    Language : Chinese
    Default : No
    Forced : No
    Menu
    00:00:00.000 : en:00:00:00.000
    00:06:02.028 : en:00:06:02.028
    00:11:57.133 : en:00:11:57.133
    00:17:23.793 : en:00:17:23.793
    00:27:22.224 : en:00:27:22.224
    00:37:23.741 : en:00:37:23.741
    00:48:49.760 : en:00:48:49.760
    00:53:37.339 : en:00:53:37.339
    00:59:03.790 : en:00:59:03.790
    01:04:36.539 : en:01:04:36.539
    01:07:56.197 : en:01:07:56.197
    01:12:28.469 : en:01:12:28.469
    01:19:42.945 : en:01:19:42.945
    01:24:38.490 : en:01:24:38.490
    01:30:14.492 : en:01:30:14.492
    01:39:00.977 : en:01:39:00.977
    01:45:45.172 : en:01:45:45.172
    01:54:19.352 : en:01:54:19.352

    _________________
    Показать сообщения:    
    Главная  Кинофильмы  Азиатские кинофильмы

    Текущее время: 01-Ноя 07:02

    Часовой пояс: UTC + 5



    Вы не можете начинать темы
    Вы не можете отвечать на сообщения
    Вы не можете редактировать свои сообщения
    Вы не можете удалять свои сообщения
    Вы не можете голосовать в опросах
    Вы не можете прикреплять файлы к сообщениям
    Вы не можете скачивать файлы