Судьба/Великий приказ: Вавилония / Fate/Grand Order: Zettai Majuu Sensen Babylonia [TV-1 + OVA] [21 из 21 + 1] (Акай Тосифуми) [2019, Приключения, фэнтези, BDRip] DUB (StudioBand) :: UZTOR.PW Лучший трекер в зоне TAS-IX!
 
Уважаемые гости сайта! Добро Пожаловать на наш торрент трекер,где Вы можете бесплатно скачать любой Софт,Фильмы,Музыку и многое другое! А так же постоянно ведется набор модераторов и релизеров. Зарегистрируйтесь сейчас, чтобы получить доступ ко всем функциям. После регистрации или входа на сайт вы сможете создавать темы, отвечать на сообщения и скачивать файлы.

Навигация по Торрент раздачам и Форум и Стол заказов и Группы



 Судьба/Великий приказ: Вавилония / Fate/Grand Order: Zettai Majuu Sensen Babylonia [TV-1 + OVA] [21 из 21 + 1] (Акай Тосифуми) [2019, Приключения, фэнтези, BDRip] DUB (StudioBand)

Главная  Аниме  Сериалы  Аниме Сериалы
Статистика раздачи
Нет
 
     
 
 
 
Автор Сообщение
  • Создавать темы 21-Авг-2020 17:49

    Судьба/Великий приказ: Вавилония
    Fate/Grand Order: Zettai Majuu Sensen Babylonia
    --
    Год выпуска: 2019
    Страна: Япония
    Студия: CloverWorks
    Жанр: Приключения, фэнтези
    Продолжительность: 21 х ~ 00:24:00; 01 x 00:27:00 (OVA)
    Перевод: Профессиональный дублированный | StudioBand по заказу [Wakanim]-Режиссер: Тосифуми Акай
    Автор оригинала: Насу Киноко
    Снято по игре: Fate/Grand Order-В ролях: Гриффин Барнс, Робби Дэймонд, Ая Эндо, Глория Гараюа, Ю Кобаяси, Томокадзу Сэки, Кана Уэда, Мики Ито, Симадзаки Нобунага, Риэ Такахаси-О фильме: 2017 год н.э. Последний век существования магии. Пока маги продолжали пытаться постичь сущность этого мира, простые люди создали собственное общество. Магия – это методики, созданные людьми, жившими в далёком прошлом, их невозможно объяснить современной наукой. Однако наука воплотила в себе открытия людей, живущих будущим, и эти открытия никогда не будет дано постичь с помощью магии. Однако и магов, и учёных объединила под своим крылом Халдея – Организация по защите человечества, цель которой – любой ценой сохранить человеческую цивилизацию. Но случилось непредвиденное: расчёты показали, что в 2019-м году человечество будет уничтожено. Причина опасности кроется в «сингулярностях» – точках, не поддающихся наблюдению, которые начали появляться в разных местах полотна человеческой истории.-Качество: BDRip
    Формат: .AVI
    Видео: 720x400 (16:9), 23.976 fps, 1 345 kb/s (0.195 bit/pixel)
    Аудио №1: AC3, 48.0 kHz, 2 ch, 192 kb/s, CBR | | Wakanim
    Аудио №2: AC3, 48.0 kHz, 2 ch, 192 kb/s, CBR| | Japan (Оригинал)
    Субтитры: Русские (Полные)--

    Хронология

    #1 Судьба: Начало [ТВ-1] - ТВ (13 эп. + спэшлы), предыстория, 2011
    #2 Судьба: Начало [ТВ-2] - ТВ (12 эп.), продолжение, 2012
    #3 Судьба: Ночь схватки [ТВ-1] - ТВ (24 эп.), адаптация игры, 2006
    #4 Судьба: Ночь схватки OVA - OVA (2 эп.), нарезка ТВ-сериала, 2010
    #5 Судьба: Ночь схватки. Клинков бесконечный край [ТВ-1] - ТВ (12 эп. + спэшл), адаптация игры, 2014
    #6 Судьба: Ночь схватки. Клинков бесконечный край [ТВ-2] - ТВ (13 эп. + спэшл), продолжение, 2015
    #7 Судьба: Ночь Схватки. Прикосновение небес 1 - п/ф (1 эп.), адаптация игры, 2017
    #8 Судьба: Ночь Схватки. Прикосновение небес 2 - п/ф (1 эп.), адаптация игры, 2019
    #9 Судьба: Ночь Схватки. Прикосновение небес 3 - п/ф (1 эп.), адаптация игры, 2020
    #10 Судьба: Прототип - OVA (1 эп.), альтернативная версия, 2011
    #11 Судьба: Ночь схватки. Клинков бесконечный край (фильм) - п/ф, адаптация игры (сжатая верия сериалов 2014-2015гг), 2010
    #12 Судьба: Девочка-волшебница Иллия [ТВ-1] - ТВ (10 эп. + 5 спэшлов), адаптация манги, 2013
    #13 Судьба: Девочка-волшебница Иллия OVA-1 - OVA (1 эп.), дополнение, 2014
    #14 Судьба: Девочка-волшебница Иллия [ТВ-2] - ТВ (10 эп.), продолжение, 2014
    #15 Судьба: Девочка-волшебница Иллия OVA-2 - OVA (1 эп.), дополнение, 2015
    #16 Судьба: Девочка-волшебница Иллия [ТВ-3] - ТВ (10 эп.), продолжение, 2015
    #17 Судьба: Девочка-волшебница Иллия [ТВ-4] - ТВ (12 эп.), продолжение, 2016
    #18 Судьба: Девочка-волшебница Иллия (фильм) - п/ф, продолжение, 2017
    #19 Fate/Zero Cafe - к/ф, дополнение, 2013
    #20 Карнавальный фантазм - набор комедийных ОВА-шек, посвященных персонажам Fate, Tsukihime и Melty Blood, 2011
    #21 Судьба: Апокриф - ТВ (25 эп.), адаптация ранобэ, 2017
    #22 Судьба: Дополнение - ТВ (13 эп.), адаптация игры, 2018
    #23 Судьба: Великий приказ - Первый приказ - ТВ-спэшл, адаптация игры, 2016
    #24 Судьба: Великий приказ - Лунный свет в потерянной комнате - ТВ-спэшл, адаптация игры, 2017
    #25 Судьба: Школьная жизнь - ТВ-спэшл, адаптация манги, 2017
    #26 Сегодняшнее меню для Эмии - Web (13 эп.), адаптация манги, 2017
    #27 >>>Судьба: Великий приказ - Вавилония - ТВ, адаптация игры, 2019
    #28 Судьба: Великий приказ - Камелот - п/ф (2 эп.), адаптация игры, 2020
    #29 Судьба: Девочка-волшебница Иллия OVA-3 - OVA (?? эп.), дополнение, 2019
    #30 Досье лорда Эль-Меллоя II (спэшл) - ТВ-спэшл, адаптация ранобэ, 2018
    #31 Досье лорда Эль-Меллоя II - ТВ, адаптация ранобэ, 2019
    #32 Судьба: Великий приказ - В манге всё яснее! - ТВ-спэшл, адаптация манги, 2018
    #33 Fate Grand Order: Shuukyoku Tokuiten - Kani Jikan Shinden Solomon

    MediaInfo

    General
    Complete name : [Deadmau- RAWS] Судьба.Великий.приказ.Вавилония.S01.Sp.RUS.JAP.BDRip.Deadmauvlad.Ep.00.OVA.avi
    Format : AVI
    Format/Info : Audio Video Interleave
    File size : 336 MiB
    Duration : 26 min 57 s
    Overall bit rate : 1 744 kb/s
    Director : Encoder by Deadmauvlad
    Writing application : VirtualDubMod 1.5.10.3 | www.virtualdub-fr.org || (build 2550/release)
    Writing library : VirtualDubMod build 2550/release
    Copyright : Encoder by Deadmauvlad
    Video
    ID : 0
    Format : MPEG-4 Visual
    Format profile : Advanced Simple@L5
    Format settings : BVOP1 / Custom Matrix
    Format settings, BVOP : 1
    Format settings, QPel : No
    Format settings, GMC : No warppoints
    Format settings, Matrix : Custom
    Codec ID : XVID
    Codec ID/Hint : XviD
    Duration : 26 min 57 s
    Bit rate : 1 345 kb/s
    Width : 720 pixels
    Height : 400 pixels
    Display aspect ratio : 16:9
    Frame rate : 23.976 (24000/1001) FPS
    Color space : YUV
    Chroma subsampling : 4:2:0
    Bit depth : 8 bits
    Scan type : Progressive
    Compression mode : Lossy
    Bits/(Pixel*Frame) : 0.195
    Stream size : 259 MiB (77%)
    Writing library : XviD 73
    Audio #1
    ID : 1
    Format : AC-3
    Format/Info : Audio Coding 3
    Commercial name : Dolby Digital
    Codec ID : 2000
    Duration : 26 min 57 s
    Bit rate mode : Constant
    Bit rate : 192 kb/s
    Channel(s) : 2 channels
    Channel layout : L R
    Sampling rate : 48.0 kHz
    Frame rate : 31.250 FPS (1536 SPF)
    Bit depth : 16 bits
    Compression mode : Lossy
    Stream size : 37.0 MiB (11%)
    Alignment : Split accross interleaves
    Interleave, duration : 42 ms (1.00 video frame)
    Interleave, preload duration : 500 ms
    Audio #2
    ID : 2
    Format : AC-3
    Format/Info : Audio Coding 3
    Commercial name : Dolby Digital
    Codec ID : 2000
    Duration : 26 min 57 s
    Bit rate mode : Constant
    Bit rate : 192 kb/s
    Channel(s) : 2 channels
    Channel layout : L R
    Sampling rate : 48.0 kHz
    Frame rate : 31.250 FPS (1536 SPF)
    Bit depth : 16 bits
    Compression mode : Lossy
    Stream size : 37.0 MiB (11%)
    Alignment : Split accross interleaves
    Interleave, duration : 42 ms (1.00 video frame)
    Interleave, preload duration : 500 ms

    _________________
    Показать сообщения:    
    Главная  Аниме  Сериалы  Аниме Сериалы

    Текущее время: 01-Ноя 05:21

    Часовой пояс: UTC + 5



    Вы не можете начинать темы
    Вы не можете отвечать на сообщения
    Вы не можете редактировать свои сообщения
    Вы не можете удалять свои сообщения
    Вы не можете голосовать в опросах
    Вы не можете прикреплять файлы к сообщениям
    Вы не можете скачивать файлы