Сага о Винланде / Vinland Saga [TV-1] [24 из 24] (Сюхэй Ябута) [2019, Приключения, драма, исторический, BDRip-HEVC 1080p] MVO (Amber Studio, AniDUB, AniLibria) :: UZTOR.PW Лучший трекер в зоне TAS-IX!
 
Уважаемые гости сайта! Добро Пожаловать на наш торрент трекер,где Вы можете бесплатно скачать любой Софт,Фильмы,Музыку и многое другое! А так же постоянно ведется набор модераторов и релизеров. Зарегистрируйтесь сейчас, чтобы получить доступ ко всем функциям. После регистрации или входа на сайт вы сможете создавать темы, отвечать на сообщения и скачивать файлы.

Навигация по Торрент раздачам и Форум и Стол заказов и Группы



 Сага о Винланде / Vinland Saga [TV-1] [24 из 24] (Сюхэй Ябута) [2019, Приключения, драма, исторический, BDRip-HEVC 1080p] MVO (Amber Studio, AniDUB, AniLibria)

Главная  Аниме  Сериалы  Аниме Сериалы (HD)
Статистика раздачи
Качаю: [ 1 ]
 
     
 
 
 
Автор Сообщение
  • Создавать темы 21-Авг-2020 14:35

    Сага о Винланде / Vinland Saga--Год выхода: 2019
    Страна: Япония
    Студия: Wit Studio
    Жанр: Приключения, драма, исторический
    Продолжительность: 00:24:00-Перевод:
      Профессиональный многоголосый (закадровый) | Amber Studio
      Любительский многоголосый (закадровый) | AniDUB
      Любительский многоголосый (закадровый) | AniLibria
    -Режиссер: Сюхэй Ябута-В ролях: Юто Уэмура, Сидзука Исигами, Кэнъитиро Мацуда, Наоя Утида, Кэнсё Оно, Акио Оцука, Хироки Ясумото-О фильме: 1013 год. Исландский юноша Торфинн — сын одного из величайших воинов викингов. И когда его отца убивает в схватке предводитель дружины Аскеладд, юноша становится на путь воина и отправляется мстить. Будучи гордым и не желая бесчестной схватки, он вступает в дружину Аскеладда с целью победить его в поединке, но в итоге судьба затягивает его в водоворот кровавых событий эпохи, ставка в которых — корона Англии.-Качество: BDRip-HEVC 1080p
    Формат: MKV
    Видео: HEVC/x265, 1920x1080, 2237 kbps, 23.976 fps
    Звук (Rus(int)): AC-3, 192 kbps, 48,0 KHz, 2 ch | [Amber Studio]
    Звук (Rus(int)): AC-3, 192 kbps, 48,0 KHz, 2 ch | [AniDUB]
    Звук (Rus(int)): AAC, 192 kbps, 48,0 KHz, 2 ch | [AniLibria]
    Звук (Japanese): AC-3, 192 kbps, 48,0 KHz, 2 ch | [Original]
    Субтитры: русские (встроенные полный перевод, ASS)--

    MediaInfo

    Общее
    Уникальный идентификатор : 334937589975763139353208546812118240298 (0xFBFAA226BBB2934CAA1E8307E41D0C2A)
    Полное имя : F:\Anime\Vinland Saga\Vinland Saga 01.mkv
    Формат : Matroska
    Версия формата : Version 4
    Размер файла : 618 Мбайт
    Продолжительность : 28 м. 26 с.
    Общий поток : 3 039 Кбит/сек
    Дата кодирования : UTC 2020-06-22 05:48:17
    Программа кодирования : mkvmerge v46.0.0 ('No Deeper Escape') 64-bit
    Библиотека кодирования : libebml v1.3.10 + libmatroska v1.5.2
    Attachments : IM_FELL_ENGLISH_PRO_ROMAN.OTF / RUZICKATYPEK.TTF / sylfaen.ttf / FOT-NewCinemaA_Std_D_Regular.otf / GenBasB.ttf / GenBasBI.ttf
    Видео
    Идентификатор : 1
    Формат : HEVC
    Формат/Информация : High Efficiency Video Coding
    Профиль формата : Main 10@L4@Main
    Идентификатор кодека : V_MPEGH/ISO/HEVC
    Продолжительность : 28 м. 26 с.
    Битрейт : 2 237 Кбит/сек
    Ширина : 1 920 пикселей
    Высота : 1 080 пикселей
    Соотношение сторон : 16:9
    Режим частоты кадров : Постоянный
    Частота кадров : 23,976 (24000/1001) кадра/сек
    Цветовое пространство : YUV
    Субдискретизация насыщенности : 4:2:0
    Битовая глубина : 10 бит
    Бит/(Пиксели*Кадры) : 0.045
    Размер потока : 455 Мбайт (74%)
    Библиотека кодирования : x265 3.2.1+1-b5c86a64bbbe:[Windows][GCC 9.2.0][64 bit] 10bit
    Настройки программы : cpuid=1111039 / frame-threads=3 / numa-pools=8 / wpp / no-pmode / no-pme / no-psnr / no-ssim / log-level=2 / input-csp=1 / input-res=1920x1080 / interlace=0 / total-frames=0 / level-idc=0 / high-tier=1 / uhd-bd=0 / ref=4 / no-allow-non-conformance / no-repeat-headers / annexb / no-aud / no-hrd / info / hash=0 / no-temporal-layers / open-gop / min-keyint=24 / keyint=240 / gop-lookahead=0 / bframes=4 / b-adapt=2 / b-pyramid / bframe-bias=0 / rc-lookahead=25 / lookahead-slices=4 / scenecut=40 / radl=0 / no-splice / no-intra-refresh / ctu=64 / min-cu-size=8 / rect / no-amp / max-tu-size=32 / tu-inter-depth=1 / tu-intra-depth=1 / limit-tu=0 / rdoq-level=2 / dynamic-rd=0.00 / no-ssim-rd / signhide / no-tskip / nr-intra=0 / nr-inter=0 / no-constrained-intra / strong-intra-smoothing / max-merge=3 / limit-refs=3 / limit-modes / me=3 / subme=3 / merange=57 / temporal-mvp / no-hme / weightp / no-weightb / no-analyze-src-pics / deblock=0:0 / sao / no-sao-non-deblock / rd=4 / selective-sao=4 / no-early-skip / rskip / no-fast-intra / no-tskip-fast / no-cu-lossless / no-b-intra / no-splitrd-skip / rdpenalty=0 / psy-rd=2.00 / psy-rdoq=1.00 / no-rd-refine / no-lossless / cbqpoffs=0 / crqpoffs=0 / rc=crf / crf=20.5 / qcomp=0.60 / qpstep=4 / stats-write=0 / stats-read=0 / ipratio=1.40 / pbratio=1.30 / aq-mode=2 / aq-strength=1.00 / cutree / zone-count=0 / no-strict-cbr / qg-size=32 / no-rc-grain / qpmax=69 / qpmin=0 / no-const-vbv / sar=1 / overscan=0 / videoformat=5 / range=0 / colorprim=1 / transfer=1 / colormatrix=1 / chromaloc=0 / display-window=0 / cll=0,0 / min-luma=0 / max-luma=1023 / log2-max-poc-lsb=8 / vui-timing-info / vui-hrd-info / slices=1 / no-opt-qp-pps / no-opt-ref-list-length-pps / no-multi-pass-opt-rps / scenecut-bias=0.05 / no-opt-cu-delta-qp / no-aq-motion / no-hdr / no-hdr-opt / no-dhdr10-opt / no-idr-recovery-sei / analysis-reuse-level=5 / scale-factor=0 / refine-intra=0 / refine-inter=0 / refine-mv=1 / refine-ctu-distortion=0 / no-limit-sao / ctu-info=0 / no-lowpass-dct / refine-analysis-type=0 / copy-pic=1 / max-ausize-factor=1.0 / no-dynamic-refine / no-single-sei / no-hevc-aq / no-svt / no-field / qp-adaptation-range=1.00
    Default : Да
    Forced : Нет
    Цветовой диапазон : Limited
    Основные цвета : BT.709
    Характеристики трансфера : BT.709
    Коэффициенты матрицы : BT.709
    Аудио #1
    Идентификатор : 2
    Формат : AC-3
    Формат/Информация : Audio Coding 3
    Коммерческое название : Dolby Digital
    Идентификатор кодека : A_AC3
    Продолжительность : 28 м. 26 с.
    Вид битрейта : Постоянный
    Битрейт : 192 Кбит/сек
    Каналы : 2 канала
    Channel layout : L R
    Частота : 48,0 КГц
    Частота кадров : 31,250 кадров/сек (1536 SPF)
    Метод сжатия : С потерями
    Задержка видео : -5 мс.
    Размер потока : 39,1 Мбайт (6%)
    Заголовок : AmberStudio
    Язык : Russian
    Service kind : Complete Main
    Default : Да
    Forced : Нет
    Аудио #2
    Идентификатор : 3
    Формат : AC-3
    Формат/Информация : Audio Coding 3
    Коммерческое название : Dolby Digital
    Идентификатор кодека : A_AC3
    Продолжительность : 28 м. 26 с.
    Вид битрейта : Постоянный
    Битрейт : 192 Кбит/сек
    Каналы : 2 канала
    Channel layout : L R
    Частота : 48,0 КГц
    Частота кадров : 31,250 кадров/сек (1536 SPF)
    Метод сжатия : С потерями
    Задержка видео : -5 мс.
    Размер потока : 39,1 Мбайт (6%)
    Заголовок : AniDUB
    Язык : Russian
    Service kind : Complete Main
    Default : Нет
    Forced : Нет
    Аудио #3
    Идентификатор : 4
    Формат : AAC LC
    Формат/Информация : Advanced Audio Codec Low Complexity
    Идентификатор кодека : A_AAC-2
    Продолжительность : 28 м. 25 с.
    Битрейт : 192 Кбит/сек
    Каналы : 2 канала
    Channel layout : L R
    Частота : 48,0 КГц
    Частота кадров : 46,875 кадров/сек (1024 SPF)
    Метод сжатия : С потерями
    Задержка видео : -5 мс.
    Размер потока : 39,6 Мбайт (6%)
    Заголовок : AniLibria
    Язык : Russian
    Default : Нет
    Forced : Нет
    Аудио #4
    Идентификатор : 5
    Формат : AC-3
    Формат/Информация : Audio Coding 3
    Коммерческое название : Dolby Digital
    Идентификатор кодека : A_AC3
    Продолжительность : 28 м. 26 с.
    Вид битрейта : Постоянный
    Битрейт : 192 Кбит/сек
    Каналы : 2 канала
    Channel layout : L R
    Частота : 48,0 КГц
    Частота кадров : 31,250 кадров/сек (1536 SPF)
    Метод сжатия : С потерями
    Задержка видео : -5 мс.
    Размер потока : 39,1 Мбайт (6%)
    Заголовок : Original
    Язык : Japanese
    Service kind : Complete Main
    Default : Нет
    Forced : Нет
    Текст #1
    Идентификатор : 6
    Формат : ASS
    Идентификатор кодека : S_TEXT/ASS
    Идентификатор кодека/Информация : Advanced Sub Station Alpha
    Продолжительность : 27 м. 10 с.
    Битрейт : 50 бит/сек
    Count of elements : 89
    Метод сжатия : Без потерь
    Размер потока : 9,96 Кбайт (0%)
    Заголовок : Надписи
    Язык : Russian
    Default : Да
    Forced : Нет
    Текст #2
    Идентификатор : 7
    Формат : ASS
    Идентификатор кодека : S_TEXT/ASS
    Идентификатор кодека/Информация : Advanced Sub Station Alpha
    Продолжительность : 27 м. 52 с.
    Битрейт : 143 бит/сек
    Count of elements : 382
    Метод сжатия : Без потерь
    Размер потока : 29,4 Кбайт (0%)
    Заголовок : Полные субтитры
    Язык : Russian
    Default : Нет
    Forced : Нет
    Меню
    00:00:00.033 : en:Intro
    00:03:58.000 : en:OP
    00:05:31.010 : en:Part A
    00:14:10.990 : en:Part B
    00:26:56.050 : en:ED

    _________________
    Показать сообщения:    
    Главная  Аниме  Сериалы  Аниме Сериалы (HD)

    Текущее время: 01-Ноя 06:16

    Часовой пояс: UTC + 5



    Вы не можете начинать темы
    Вы не можете отвечать на сообщения
    Вы не можете редактировать свои сообщения
    Вы не можете удалять свои сообщения
    Вы не можете голосовать в опросах
    Вы не можете прикреплять файлы к сообщениям
    Вы не можете скачивать файлы