Межвидовые рецензенты / Ishuzoku Reviewers / Interspecies Reviewers / 異種族レビュアーズ [TV-1] [12 из 12] (Огава Юки) [2020, Этти, комедия, фэнтези, BDRip-HEVC 1080p] DUB (StudioBand), MVO (AniLibria, AniDUB) :: UZTOR.PW Лучший трекер в зоне TAS-IX!
 
Уважаемые гости сайта! Добро Пожаловать на наш торрент трекер,где Вы можете бесплатно скачать любой Софт,Фильмы,Музыку и многое другое! А так же постоянно ведется набор модераторов и релизеров. Зарегистрируйтесь сейчас, чтобы получить доступ ко всем функциям. После регистрации или входа на сайт вы сможете создавать темы, отвечать на сообщения и скачивать файлы.

Навигация по Торрент раздачам и Форум и Стол заказов и Группы



 Межвидовые рецензенты / Ishuzoku Reviewers / Interspecies Reviewers / 異種族レビュアーズ [TV-1] [12 из 12] (Огава Юки) [2020, Этти, комедия, фэнтези, BDRip-HEVC 1080p] DUB (StudioBand), MVO (AniLibria, AniDUB)

Главная  Аниме  Сериалы  Аниме Сериалы (HD)
Статистика раздачи
Нет
 
     
 
 
 
Автор Сообщение
  • Создавать темы 21-Авг-2020 14:12

    Межвидовые рецензенты / Ishuzoku Reviewers
    Interspecies Reviewers / 異種族レビュアーズ
    --
    Год выхода: 2020
    Страна: Япония
    Студия: Passione
    Жанр: этти, комедия, фэнтези
    Продолжительность: 00:23:30
    Перевод: Дубляж | StudioBand [Wakanim]
    Любительский многоголосый (закадровый) | AniLibria
    Любительский многоголосый (закадровый) | AniDUB-Режиссер: Огава Юки-Автор оригинала: Амахара
    Снято по манге: Ishuzoku Reviewers
    Возрастное ограничение: 18+-В ролях: Majima Junji, Tanaka Takako, Yuasa Kaede, Nukui Yuka, Koichi Makoto, Koyama Momoyo, Matsuzaki Rei, Tomita Miyu, Hikasa Youko, Kobayashi Yuusuke-О фильме: Действие истории происходит в вымышленном мире, населённом различными расами разумных существ, в котором существует процветающий рынок интимных услуг. Благодаря такому высокому развитию секс-индустрии в мире появились профессиональные критики, специализирующиеся исключительно на оценке качества проституток. Одними из них являются человек Станк и эльф Зел, путешествующие из города в город для оценки каждого местного квартала красных фонарей, после чего посылают свои обзоры для составления сводного рейтинга борделей. Объединившись с ангелом по имени Крим, критики собирают информацию о сексуальных достоинствах всех видов живых существ этого мира, получая удовольствие от процесса и зарабатывая попутно дополнительные деньги...-Качество: BDRip-HEVC 1080p
    Формат: MKV
    Видео: HEVC/x265, 1920x1080, 1751 kbps, 23.976 fps
    Звук (Rus(int)): AC-3, 192 kbps, 48,0 KHz, 2 ch | [StudioBand]
    Звук (Rus(int)): AC-3, 192 kbps, 48,0 KHz, 2 ch | [AniLibria]
    Звук (Rus(int)): AC-3, 192 kbps, 48,0 KHz, 2 ch | [AniDUB]
    Звук (Japanese): AC-3, 192 kbps, 48,1 KHz, 2 ch | [Original]
    Субтитры: русские (встроенные полный перевод, ASS)--

    MediaInfo

    Общее
    Уникальный идентификатор : 41093944211588307011205087448252232780 (0x1EEA67E07A498FCBD8BC1BF3C423344C)
    Полное имя : F:\Anime\Ishuzoku Reviewers\Ishuzoku Reviewers 01.mkv
    Формат : Matroska
    Версия формата : Version 4
    Размер файла : 424 Мбайт
    Продолжительность : 23 м. 30 с.
    Общий поток : 2 523 Кбит/сек
    Название фильма : Ishuzoku Reviewers 01
    Дата кодирования : UTC 2020-08-08 11:05:40
    Программа кодирования : mkvmerge v48.0.0 ('Fortress Around Your Heart') 64-bit
    Библиотека кодирования : libebml v1.4.0 + libmatroska v1.6.0
    Attachments : OpenSans-Semibold.ttf
    Видео
    Идентификатор : 1
    Формат : HEVC
    Формат/Информация : High Efficiency Video Coding
    Профиль формата : Main 10@L4@Main
    Идентификатор кодека : V_MPEGH/ISO/HEVC
    Продолжительность : 23 м. 30 с.
    Битрейт : 1 751 Кбит/сек
    Ширина : 1 920 пикселей
    Высота : 1 080 пикселей
    Соотношение сторон : 16:9
    Режим частоты кадров : Постоянный
    Частота кадров : 23,976 (24000/1001) кадра/сек
    Цветовое пространство : YUV
    Субдискретизация насыщенности : 4:2:0
    Битовая глубина : 10 бит
    Бит/(Пиксели*Кадры) : 0.035
    Размер потока : 294 Мбайт (69%)
    Библиотека кодирования : x265 2.5+14-2718cb5dd67f:[Windows][GCC 7.1.0][64 bit] 10bit
    Настройки программы : cpuid=1173503 / frame-threads=2 / numa-pools=4 / wpp / no-pmode / no-pme / no-psnr / no-ssim / log-level=2 / input-csp=1 / input-res=1920x1080 / interlace=0 / total-frames=33820 / level-idc=0 / high-tier=1 / uhd-bd=0 / ref=4 / no-allow-non-conformance / no-repeat-headers / annexb / no-aud / no-hrd / info / hash=0 / no-temporal-layers / open-gop / min-keyint=23 / keyint=250 / bframes=8 / b-adapt=2 / b-pyramid / bframe-bias=0 / rc-lookahead=88 / lookahead-slices=4 / scenecut=40 / no-intra-refresh / ctu=64 / min-cu-size=8 / rect / no-amp / max-tu-size=32 / tu-inter-depth=1 / tu-intra-depth=1 / limit-tu=0 / rdoq-level=2 / dynamic-rd=0.00 / no-ssim-rd / signhide / no-tskip / nr-intra=0 / nr-inter=0 / no-constrained-intra / strong-intra-smoothing / max-merge=3 / limit-refs=3 / limit-modes / me=2 / subme=3 / merange=58 / temporal-mvp / weightp / no-weightb / no-analyze-src-pics / deblock=0:-1 / no-sao / no-sao-non-deblock / rd=4 / no-early-skip / rskip / no-fast-intra / no-tskip-fast / no-cu-lossless / no-b-intra / no-splitrd-skip / rdpenalty=0 / psy-rd=1.60 / psy-rdoq=1.10 / no-rd-refine / analysis-reuse-mode=0 / no-lossless / cbqpoffs=0 / crqpoffs=0 / rc=crf / crf=21.8 / qcomp=0.70 / qpstep=4 / stats-write=0 / stats-read=0 / ipratio=1.40 / pbratio=1.30 / aq-mode=3 / aq-strength=1.15 / cutree / zone-count=0 / no-strict-cbr / qg-size=32 / no-rc-grain / qpmax=69 / qpmin=0 / no-const-vbv / sar=0 / overscan=0 / videoformat=5 / range=0 / colorprim=2 / transfer=2 / colormatrix=2 / chromaloc=0 / display-window=0 / max-cll=0,0 / min-luma=0 / max-luma=1023 / log2-max-poc-lsb=8 / vui-timing-info / vui-hrd-info / slices=1 / opt-qp-pps / opt-ref-list-length-pps / no-multi-pass-opt-rps / scenecut-bias=0.05 / no-opt-cu-delta-qp / no-aq-motion / no-hdr / no-hdr-opt / no-dhdr10-opt / analysis-reuse-level=5 / scale-factor=0 / refine-intra=0 / refine-inter=0 / refine-mv=0 / no-limit-sao / ctu-info=0
    Язык : Japanese
    Default : Да
    Forced : Нет
    Цветовой диапазон : Limited
    Аудио #1
    Идентификатор : 2
    Формат : AC-3
    Формат/Информация : Audio Coding 3
    Коммерческое название : Dolby Digital
    Идентификатор кодека : A_AC3
    Продолжительность : 23 м. 30 с.
    Вид битрейта : Постоянный
    Битрейт : 192 Кбит/сек
    Каналы : 2 канала
    Channel layout : L R
    Частота : 48,0 КГц
    Частота кадров : 31,250 кадров/сек (1536 SPF)
    Метод сжатия : С потерями
    Размер потока : 32,3 Мбайт (8%)
    Заголовок : StudioBand
    Язык : Russian
    Service kind : Complete Main
    Default : Да
    Forced : Нет
    Аудио #2
    Идентификатор : 3
    Формат : AC-3
    Формат/Информация : Audio Coding 3
    Коммерческое название : Dolby Digital
    Идентификатор кодека : A_AC3
    Продолжительность : 23 м. 30 с.
    Вид битрейта : Постоянный
    Битрейт : 192 Кбит/сек
    Каналы : 2 канала
    Channel layout : L R
    Частота : 48,0 КГц
    Частота кадров : 31,250 кадров/сек (1536 SPF)
    Метод сжатия : С потерями
    Размер потока : 32,3 Мбайт (8%)
    Заголовок : AniLibria
    Язык : Russian
    Service kind : Complete Main
    Default : Нет
    Forced : Нет
    Аудио #3
    Идентификатор : 4
    Формат : AC-3
    Формат/Информация : Audio Coding 3
    Коммерческое название : Dolby Digital
    Идентификатор кодека : A_AC3
    Продолжительность : 23 м. 30 с.
    Вид битрейта : Постоянный
    Битрейт : 192 Кбит/сек
    Каналы : 2 канала
    Channel layout : L R
    Частота : 48,0 КГц
    Частота кадров : 31,250 кадров/сек (1536 SPF)
    Метод сжатия : С потерями
    Размер потока : 32,3 Мбайт (8%)
    Заголовок : AniDUB
    Язык : Russian
    Service kind : Complete Main
    Default : Нет
    Forced : Нет
    Аудио #4
    Идентификатор : 5
    Формат : AC-3
    Формат/Информация : Audio Coding 3
    Коммерческое название : Dolby Digital
    Идентификатор кодека : A_AC3
    Продолжительность : 23 м. 30 с.
    Вид битрейта : Постоянный
    Битрейт : 192 Кбит/сек
    Каналы : 2 канала
    Channel layout : L R
    Частота : 48,0 КГц
    Частота кадров : 31,250 кадров/сек (1536 SPF)
    Метод сжатия : С потерями
    Размер потока : 32,3 Мбайт (8%)
    Заголовок : Original
    Язык : Japanese
    Service kind : Complete Main
    Default : Нет
    Forced : Нет
    Текст #1
    Идентификатор : 6
    Формат : ASS
    Идентификатор кодека : S_TEXT/ASS
    Идентификатор кодека/Информация : Advanced Sub Station Alpha
    Продолжительность : 22 м. 3 с.
    Битрейт : 45 бит/сек
    Count of elements : 86
    Метод сжатия : Без потерь
    Размер потока : 7,38 Кбайт (0%)
    Заголовок : Надписи
    Язык : Russian
    Default : Да
    Forced : Нет
    Текст #2
    Идентификатор : 7
    Формат : ASS
    Идентификатор кодека : S_TEXT/ASS
    Идентификатор кодека/Информация : Advanced Sub Station Alpha
    Продолжительность : 23 м. 7 с.
    Битрейт : 197 бит/сек
    Count of elements : 408
    Метод сжатия : Без потерь
    Размер потока : 33,5 Кбайт (0%)
    Заголовок : Полные субтитры
    Язык : Russian
    Default : Нет
    Forced : Нет
    Меню
    00:00:00.000 : en:Prologue
    00:03:05.977 : en:OP
    00:04:36.026 : en:Part A
    00:08:37.016 : en:Part B
    00:21:24.950 : en:ED
    00:22:54.915 : en:Epilogue

    _________________
    Показать сообщения:    
    Главная  Аниме  Сериалы  Аниме Сериалы (HD)

    Текущее время: 26-Окт 08:19

    Часовой пояс: UTC + 5



    Вы не можете начинать темы
    Вы не можете отвечать на сообщения
    Вы не можете редактировать свои сообщения
    Вы не можете удалять свои сообщения
    Вы не можете голосовать в опросах
    Вы не можете прикреплять файлы к сообщениям
    Вы не можете скачивать файлы