Взрыв! / Btooom! [TV-1] [12 из 12] (Ватанабэ Котоно) [2012, Приключения, драма, психология, BDRip-HEVC 1080p] MVO (SHIZA Project), DVO (AniDUB, AniLibria) :: UZTOR.PW Лучший трекер в зоне TAS-IX!
 
Уважаемые гости сайта! Добро Пожаловать на наш торрент трекер,где Вы можете бесплатно скачать любой Софт,Фильмы,Музыку и многое другое! А так же постоянно ведется набор модераторов и релизеров. Зарегистрируйтесь сейчас, чтобы получить доступ ко всем функциям. После регистрации или входа на сайт вы сможете создавать темы, отвечать на сообщения и скачивать файлы.

Навигация по Торрент раздачам и Форум и Стол заказов и Группы



 Взрыв! / Btooom! [TV-1] [12 из 12] (Ватанабэ Котоно) [2012, Приключения, драма, психология, BDRip-HEVC 1080p] MVO (SHIZA Project), DVO (AniDUB, AniLibria)

Главная  Аниме  Сериалы  Аниме Сериалы (HD)
Статистика раздачи
Нет
 
     
 
 
 
Автор Сообщение
  • Создавать темы 21-Авг-2020 13:27

    Взрыв! / Btooom!--Год выхода: 2012
    Страна: Япония
    Студия: Madhouse Studio
    Жанр: приключения, драма, психология
    Продолжительность: 00:24:30
    Перевод:
      Любительский двухголосный (AniDUB)
      Любительский двухголосный (AniLibria)
      Любительский многоголосый (SHIZA Project)
    -Режиссер: Ватанабэ Котоно-В ролях: Тайлер Галиндо, Каната Хонго, Судзуко Мимори, Тору Окава, Мэидзин Такахаси, Кэн Нарита, Ёко Хикаса, Юити Накамура, Миюки Савасиро-О фильме: Сетевая игра "Взрыв" (БТУМ) насчитывает несколько миллионов игроков по всему миру, среди них Сакамото Рёта, лучший игрок Японии входящий в десятку лучших мира. Он неудачник по жизни, онлайн задрот, в виртуальной реальности он чувствует себя лучшим, в жизни же он НИКТО!
    Но ему, как и Химико и многим другим игрокам предстоит столкнуться с реальностью, с ответственностью своих действий выбора и последствий. Оказавшись на острове, им придётся убивать, что бы выжить и выбраться на свободу.
    Это "ВЗРЫВ" в реальности, группы людей должны будут убивать и зарабатывать очки: 8 радаров - идентификаторов, из которых один уже вживлен в руку игрока. Оружие - бимы, бомбы разных боевых свойств.
    Перед нашими героями встает вопрос - играть по правилам и убивать или играть по своим правилам. ИГРА НАЧИНАЕТСЯ!-Качество: BDRip-HEVC 1080p
    Формат: MKV
    Видео: x265, 1920x1080, 2123 kbps, 23.976 fps
    Звук (Rus(int)): AC-3, 192 kbps, 48,0 KHz, 2 ch | [AniDUB]
    Звук (Rus(int)): AC-3, 192 kbps, 48,0 KHz, 2 ch | [AniLibria]
    Звук (Rus(int)): AC-3, 192 kbps, 48,0 KHz, 2 ch | [SHIZA Project]--

    MediaInfo

    Общее
    Уникальный идентификатор : 274864163686594607149983521188028359867 (0xCEC8E98FA870FE20C129A9A68E1424BB)
    Полное имя : F:\Anime\BTOOOM!\BTOOOM! 01.mkv
    Формат : Matroska
    Версия формата : Version 4
    Размер файла : 471 Мбайт
    Продолжительность : 24 м. 27 с.
    Общий поток : 2 694 Кбит/сек
    Дата кодирования : UTC 2018-08-07 09:26:22
    Программа кодирования : mkvmerge v25.0.0 ('Prog Noir') 64-bit
    Библиотека кодирования : libebml v1.3.6 + libmatroska v1.4.9
    Видео
    Идентификатор : 1
    Формат : HEVC
    Формат/Информация : High Efficiency Video Coding
    Профиль формата : Main 10@L4@Main
    Идентификатор кодека : V_MPEGH/ISO/HEVC
    Продолжительность : 24 м. 22 с.
    Битрейт : 2 123 Кбит/сек
    Ширина : 1 920 пикселей
    Высота : 1 080 пикселей
    Соотношение сторон : 16:9
    Режим частоты кадров : Постоянный
    Частота кадров : 23,976 (24000/1001) кадра/сек
    Цветовое пространство : YUV
    Субдискретизация насыщенности : 4:2:0
    Битовая глубина : 10 бит
    Бит/(Пиксели*Кадры) : 0.043
    Размер потока : 370 Мбайт (79%)
    Библиотека кодирования : x265 2.1+69-c97c64ab8b8e:[Windows][GCC 6.2.0][64 bit] 10bit
    Настройки программы : cpuid=1173503 / frame-threads=2 / numa-pools=4 / wpp / no-pmode / no-pme / no-psnr / no-ssim / log-level=2 / input-csp=1 / input-res=1920x1080 / interlace=0 / total-frames=35064 / level-idc=0 / high-tier=1 / uhd-bd=0 / ref=4 / no-allow-non-conformance / no-repeat-headers / annexb / no-aud / no-hrd / info / hash=0 / no-temporal-layers / open-gop / min-keyint=23 / keyint=250 / bframes=4 / b-adapt=2 / b-pyramid / bframe-bias=0 / rc-lookahead=25 / lookahead-slices=4 / scenecut=40 / no-intra-refresh / ctu=64 / min-cu-size=8 / rect / no-amp / max-tu-size=32 / tu-inter-depth=1 / tu-intra-depth=1 / limit-tu=0 / rdoq-level=2 / signhide / no-tskip / nr-intra=0 / nr-inter=0 / no-constrained-intra / strong-intra-smoothing / max-merge=3 / limit-refs=3 / limit-modes / me=3 / subme=3 / merange=57 / temporal-mvp / weightp / no-weightb / no-analyze-src-pics / deblock=0:0 / sao / no-sao-non-deblock / rd=4 / no-early-skip / rskip / no-fast-intra / no-tskip-fast / no-cu-lossless / no-b-intra / rdpenalty=0 / psy-rd=2.00 / psy-rdoq=1.00 / no-rd-refine / analysis-mode=0 / no-lossless / cbqpoffs=0 / crqpoffs=0 / rc=crf / crf=19.0 / qcomp=0.60 / qpstep=4 / stats-write=0 / stats-read=0 / ipratio=1.40 / pbratio=1.30 / aq-mode=1 / aq-strength=1.00 / cutree / zone-count=0 / no-strict-cbr / qg-size=32 / no-rc-grain / qpmax=69 / qpmin=0 / sar=0 / overscan=0 / videoformat=5 / range=0 / colorprim=2 / transfer=2 / colormatrix=2 / chromaloc=0 / display-window=0 / max-cll=0,0 / min-luma=0 / max-luma=1023 / log2-max-poc-lsb=8 / vui-timing-info / vui-hrd-info / slices=1 / opt-qp-pps / opt-ref-list-length-pps / no-multi-pass-opt-rps / scenecut-bias=0.05
    Default : Да
    Forced : Нет
    Аудио #1
    Идентификатор : 2
    Формат : AC-3
    Формат/Информация : Audio Coding 3
    Коммерческое название : Dolby Digital
    Идентификатор кодека : A_AC3
    Продолжительность : 24 м. 27 с.
    Вид битрейта : Постоянный
    Битрейт : 192 Кбит/сек
    Каналы : 2 канала
    Channel layout : L R
    Частота : 48,0 КГц
    Частота кадров : 31,250 кадров/сек (1536 SPF)
    Метод сжатия : С потерями
    Размер потока : 33,6 Мбайт (7%)
    Язык : Russian
    Service kind : Complete Main
    Default : Да
    Forced : Нет
    Аудио #2
    Идентификатор : 3
    Формат : AC-3
    Формат/Информация : Audio Coding 3
    Коммерческое название : Dolby Digital
    Идентификатор кодека : A_AC3
    Продолжительность : 24 м. 27 с.
    Вид битрейта : Постоянный
    Битрейт : 192 Кбит/сек
    Каналы : 2 канала
    Channel layout : L R
    Частота : 48,0 КГц
    Частота кадров : 31,250 кадров/сек (1536 SPF)
    Метод сжатия : С потерями
    Размер потока : 33,6 Мбайт (7%)
    Язык : Russian
    Service kind : Complete Main
    Default : Нет
    Forced : Нет
    Аудио #3
    Идентификатор : 4
    Формат : AC-3
    Формат/Информация : Audio Coding 3
    Коммерческое название : Dolby Digital
    Идентификатор кодека : A_AC3
    Продолжительность : 24 м. 27 с.
    Вид битрейта : Постоянный
    Битрейт : 192 Кбит/сек
    Каналы : 2 канала
    Channel layout : L R
    Частота : 48,0 КГц
    Частота кадров : 31,250 кадров/сек (1536 SPF)
    Метод сжатия : С потерями
    Размер потока : 33,6 Мбайт (7%)
    Язык : Russian
    Service kind : Complete Main
    Default : Нет
    Forced : Нет
    Меню
    00:00:00.000 : en:Chapter 01
    00:01:53.071 : en:Chapter 02
    00:03:23.077 : en:Chapter 03
    00:12:10.062 : en:Chapter 04
    00:19:42.347 : en:Chapter 05
    00:21:11.979 : en:Chapter 06
    00:24:06.027 : en:Chapter 07

    _________________
    Показать сообщения:    
    Главная  Аниме  Сериалы  Аниме Сериалы (HD)

    Текущее время: 26-Окт 09:32

    Часовой пояс: UTC + 5



    Вы не можете начинать темы
    Вы не можете отвечать на сообщения
    Вы не можете редактировать свои сообщения
    Вы не можете удалять свои сообщения
    Вы не можете голосовать в опросах
    Вы не можете прикреплять файлы к сообщениям
    Вы не можете скачивать файлы