Боевая академия города Астериск / Gakusen Toshi Asterisk / 学戦都市アスタリスク [TV-1,2] [24 из 24] (Оно Манабу) [2015-2016, Гарем, комедия, приключения, романтика, школа, фантастика, фэнтези, этти, BDRip] MVO (AniDUB) :: UZTOR.PW Лучший трекер в зоне TAS-IX!
 
Уважаемые гости сайта! Добро Пожаловать на наш торрент трекер,где Вы можете бесплатно скачать любой Софт,Фильмы,Музыку и многое другое! А так же постоянно ведется набор модераторов и релизеров. Зарегистрируйтесь сейчас, чтобы получить доступ ко всем функциям. После регистрации или входа на сайт вы сможете создавать темы, отвечать на сообщения и скачивать файлы.

Навигация по Торрент раздачам и Форум и Стол заказов и Группы



 Боевая академия города Астериск / Gakusen Toshi Asterisk / 学戦都市アスタリスク [TV-1,2] [24 из 24] (Оно Манабу) [2015-2016, Гарем, комедия, приключения, романтика, школа, фантастика, фэнтези, этти, BDRip] MVO (AniDUB)

Главная  Аниме  Сериалы  Аниме Сериалы
Статистика раздачи
Нет
 
     
 
 
 
Автор Сообщение
  • Создавать темы 21-Авг-2020 13:09

    Боевая академия города Астериск / Gakusen Toshi Asterisk
    学戦都市アスタリスク
    --Год выхода: 2015-2016
    Страна: Япония
    Студия: A-1 Pictures
    Жанр : гарем, комедия, приключения, романтика, школа, фантастика, фэнтези, этти
    Продолжительность: 24 x ~ 00:24:00
    Перевод: Любительский многоголосый закадровый AniDub [Ancord, OSKIKt, Nika Lenina, Jade]
    Возрастное ограничение: 16+-Режиссер: Оно Манабу-Автор оригинала: Миядзаки Ю
    Снято по манге: Каваками Тэцуя-В ролях: Ацуси Тамару, Аи Какума, Кира Баклэнд, Эрик Скотт Кимерер, Лэндон МакДональд, Нао Тояма, Эрика Харлакер, Сиори Идзава, Sarah Anne Williams, Ари Одзава-Описание: Человечество вечно ожидало наступление апокалипсиса, но предугадать последствия и масштаб разрушения так и не удалось. Столетие назад на Землю обрушился чудовищный метеоритный дождь, который разрушил большую часть населённых территорий. Со временем этот ужасный день начали называть «Инверсия». Разрушение было не единственной проблемой, ведь после катаклизма на планете появилась магическая сила «мана», которая даровала некоторым жителям невероятную силу. С тех пор появилось поколение «Звёздного импульса», которое умеет контролировать энергию и владеет магическими навыками. Для таких молодых людей был построен специальный остров Астериск, на котором находится шесть академий, где обучаются «Генестелла».
    Одного дня Аято Амагири перевёлся в элитную академию, которая славилась своими учениками. Парень шёл оформлять документы, как вдруг из окна выпал платок. Амагири решил вернуть утерянную вещь владельцу, но застал Джулис Алексию в обнажённом виде. Девушка не могла простить такой поступок наглого паренька, а потому сразу же вызвала его на поединок. В этой академии существует специальный турнир «Феста» в котором участвуют все желающие студенты. Они меряются силами, и бороться за первое место на пьедестале почёта. Аято не успел прибыть, а уже нашёл проблемы на свою голову. Сражение с «Ведьмой Сверкающей Розы» было неминуемо и пришлось принять вызов. Во время поединка происходит покушение на Джулис, но новенькому удаётся её спасти. Кто же этот человек, который нарушил правила и хотел незаметно убить девушку? Во что вляпался талантливый маг в этот раз?-Качество: BDRip
    Контейнер: AVI
    Видео: XviD, 720x400 (16:9), 23.976 fps, 1 589 kb/s (0.230 bit/pixel)
    Аудио №1: AC3, 48.0 kHz, 2 ch, 192 kb/s, CBR | | AniDub
    Аудио №2: AC3, 48.0 kHz, 2 ch, 192 kb/s, CBR | | Japan (Оригинал)
    Субтитры: Русские--

    Список эпизодов

    S01
    01. Ведьма Цветущего Пламени
    02. Сер Вереста
    03. Выходной на двоих
    04. Без оков
    05. Молниеносный клинок
    06. Её истинные чувств
    07. Решение и дуэль
    08. Выходной на двоих. Часть 2
    09. Феникс
    10. Кровопийца
    11. Цена силы
    12. Грави-Сиз
    S02
    01. Божественные Откровения
    02. Нечестный Правитель
    03. Ломая Барьеры Памяти
    04. Никогда Не Сдавайся
    05. Нити Марионеток Тирана
    06. Поиски
    07. Песень Битвы
    08. Последний полёт Феникса
    09. Шаг До Победы
    10. Лиселтания
    11. Одинокая Стрега
    12. Воссоединение

    MediaInfo

    General
    Complete name : [Deadmau- RAWS] Боевая.академия.города.Астериск.S01.RUS.JAP.BDRip.Deadmauvlad.Ep.01.avi
    Format : AVI
    Format/Info : Audio Video Interleave
    File size : 333 MiB
    Duration : 23 min 27 s
    Overall bit rate : 1 988 kb/s
    Director : Encoder by Deadmauvlad
    Writing application : VirtualDubMod 1.5.10.3 | www.virtualdub-fr.org || (build 2550/release)
    Writing library : VirtualDubMod build 2550/release
    Copyright : Encoder by Deadmauvlad
    Video
    ID : 0
    Format : MPEG-4 Visual
    Format profile : Advanced Simple@L5
    Format settings : BVOP1 / Custom Matrix
    Format settings, BVOP : 1
    Format settings, QPel : No
    Format settings, GMC : No warppoints
    Format settings, Matrix : Custom
    Codec ID : XVID
    Codec ID/Hint : XviD
    Duration : 23 min 27 s
    Bit rate : 1 589 kb/s
    Width : 720 pixels
    Height : 400 pixels
    Display aspect ratio : 16:9
    Frame rate : 23.976 (24000/1001) FPS
    Color space : YUV
    Chroma subsampling : 4:2:0
    Bit depth : 8 bits
    Scan type : Progressive
    Compression mode : Lossy
    Bits/(Pixel*Frame) : 0.230
    Stream size : 267 MiB (80%)
    Writing library : XviD 73
    Audio #1
    ID : 1
    Format : AC-3
    Format/Info : Audio Coding 3
    Commercial name : Dolby Digital
    Codec ID : 2000
    Duration : 23 min 27 s
    Bit rate mode : Constant
    Bit rate : 192 kb/s
    Channel(s) : 2 channels
    Channel layout : L R
    Sampling rate : 48.0 kHz
    Frame rate : 31.250 FPS (1536 SPF)
    Bit depth : 16 bits
    Compression mode : Lossy
    Stream size : 32.2 MiB (10%)
    Alignment : Split accross interleaves
    Interleave, duration : 42 ms (1.00 video frame)
    Interleave, preload duration : 500 ms
    Audio #2
    ID : 2
    Format : AC-3
    Format/Info : Audio Coding 3
    Commercial name : Dolby Digital
    Codec ID : 2000
    Duration : 23 min 27 s
    Bit rate mode : Constant
    Bit rate : 192 kb/s
    Channel(s) : 2 channels
    Channel layout : L R
    Sampling rate : 48.0 kHz
    Frame rate : 31.250 FPS (1536 SPF)
    Bit depth : 16 bits
    Compression mode : Lossy
    Stream size : 32.2 MiB (10%)
    Alignment : Split accross interleaves
    Interleave, duration : 42 ms (1.00 video frame)
    Interleave, preload duration : 500 ms

    _________________
    Показать сообщения:    
    Главная  Аниме  Сериалы  Аниме Сериалы

    Текущее время: 01-Ноя 05:49

    Часовой пояс: UTC + 5



    Вы не можете начинать темы
    Вы не можете отвечать на сообщения
    Вы не можете редактировать свои сообщения
    Вы не можете удалять свои сообщения
    Вы не можете голосовать в опросах
    Вы не можете прикреплять файлы к сообщениям
    Вы не можете скачивать файлы