Непризнанный школой владыка демонов! / Maou Gakuin no Futekigousha / The Misfit of Demon King Academy [TV-1] [1-13 из 13] (Масафуми Тамура, Син Онума) [2020, Магия, фэнтези, школа, WEBRip 1080p] DUB (StudioBand) :: UZTOR.PW Лучший трекер в зоне TAS-IX!
 
Уважаемые гости сайта! Добро Пожаловать на наш торрент трекер,где Вы можете бесплатно скачать любой Софт,Фильмы,Музыку и многое другое! А так же постоянно ведется набор модераторов и релизеров. Зарегистрируйтесь сейчас, чтобы получить доступ ко всем функциям. После регистрации или входа на сайт вы сможете создавать темы, отвечать на сообщения и скачивать файлы.

Навигация по Торрент раздачам и Форум и Стол заказов и Группы



 Непризнанный школой владыка демонов! / Maou Gakuin no Futekigousha / The Misfit of Demon King Academy [TV-1] [1-13 из 13] (Масафуми Тамура, Син Онума) [2020, Магия, фэнтези, школа, WEBRip 1080p] DUB (StudioBand)

Главная  Аниме  Сериалы  Аниме Сериалы (HD)
Статистика раздачи
Нет
 
     
 
 
 
Автор Сообщение
  • Создавать темы 19-Авг-2020 17:04

    Непризнанный школой владыка демонов! / Maou Gakuin no Futekigousha
    The Misfit of Demon King Academy
    -- Год выхода: 2020
    Страна: Япония
    Жанр: магия, фэнтези, школа
    Продолжительность: ~ 00:24:00 (серия)
    Перевод: Дубляж | StudioBand [Wakanim]-Режиссеры: Масафуми Тамура, Син Онума-О фильме: Жестокий владыка тьмы, поверженный две тысячи лет назад, возродился... Однако в академии, где учат кандидатов во владыки тьмы, ему поставили оценку… «не годен»?! Он уничтожал людей, духов и даже богов, но бесконечная война наскучила ему, и владыка тьмы Анос Волдигод переродился с мечтой о спокойном мире. Только две тысячи лет спустя его ждали крайне ослабевшие от мирной жизни потомки и пришедшая в полный упадок магия. Анос отправился в Академию владыки тьмы, где собирают и воспитывают тех, кто может оказаться перерождённым владыкой, но там не разглядели его силы и заклеймили негодным. Более того, все считают, что между ним и легендарным владыкой тьмы нет ничего общего. Окружающие считают его ниже себя, а из последователей у Аноса — только девушка Миша, которая одна была к нему добра. Так начинается путь негодного владыки тьмы вверх по магической иерархии. «Будь то волей провидения, судьбы или чуда, рано или поздно передо мной все падут ниц.»-Качество: WEBRip 1080p
    Формат: MP4
    Видео: AVC/h.264, 1920x1080, ~ 4 100 kb/s, 23.976 FPS. 8 bits
    Аудио RUS: AAC LC, ~ 128 kb/s, 2 channels, 48.0 kHz
    Аудио JAP: AAC LC, ~ 128 kb/s, 2 channels, 48.0 kHz
    Субтитры: Русские надписи, неотключаемые. Полные: Wakanim. (дехардсаб)--

    MediaInfo

    General
    Unique ID : 347556079185553959269435585284194035 (0x42EFD673AD3C308F06CF80A6F2BEF3)
    Complete name : [FortunaTV] The Misfit of Demon King Academy - 01 (WEBRip 1920x1080 x264 AAC Rus).mkv
    Format : Matroska
    Format version : Version 4
    File size : 736 MiB
    Duration : 24 min 12 s
    Overall bit rate : 4 248 kb/s
    Encoded date : UTC 2020-07-27 10:18:21
    Writing application : mkvmerge v39.0.0 ('In The Waiting Line') 64-bit
    Writing library : libebml v1.3.9 + libmatroska v1.5.2
    Video
    ID : 1
    Format : AVC
    Format/Info : Advanced Video Codec
    Format profile : High@L4
    Format settings : CABAC / 4 Ref Frames
    Format settings, CABAC : Yes
    Format settings, Reference frames : 4 frames
    Codec ID : V_MPEG4/ISO/AVC
    Duration : 24 min 12 s
    Bit rate : 4 100 kb/s
    Width : 1 920 pixels
    Height : 1 080 pixels
    Display aspect ratio : 16:9
    Frame rate mode : Constant
    Frame rate : 23.976 (23976/1000) FPS
    Color space : YUV
    Chroma subsampling : 4:2:0
    Bit depth : 8 bits
    Scan type : Progressive
    Bits/(Pixel*Frame) : 0.082
    Stream size : 691 MiB (94%)
    Writing library : x264 core 155
    Encoding settings : cabac=1 / ref=3 / deblock=1:0:0 / analyse=0x3:0x113 / me=hex / subme=6 / psy=1 / psy_rd=1.00:0.00 / mixed_ref=0 / me_range=16 / chroma_me=1 / trellis=1 / 8x8dct=1 / cqm=0 / deadzone=21,11 / fast_pskip=1 / chroma_qp_offset=-2 / threads=24 / lookahead_threads=4 / sliced_threads=0 / nr=0 / decimate=1 / interlaced=0 / bluray_compat=0 / constrained_intra=0 / bframes=3 / b_pyramid=2 / b_adapt=1 / b_bias=0 / direct=1 / weightb=1 / open_gop=0 / weightp=2 / keyint=250 / keyint_min=25 / scenecut=0 / intra_refresh=0 / rc_lookahead=40 / rc=abr / mbtree=1 / bitrate=4100 / ratetol=1.0 / qcomp=0.60 / qpmin=0 / qpmax=69 / qpstep=4 / vbv_maxrate=4700 / vbv_bufsize=23500 / nal_hrd=none / filler=0 / ip_ratio=1.40 / aq=1:1.00
    Default : Yes
    Forced : No
    Audio #1
    ID : 2
    Format : AAC LC
    Format/Info : Advanced Audio Codec Low Complexity
    Codec ID : A_AAC-2
    Duration : 24 min 12 s
    Bit rate : 128 kb/s
    Channel(s) : 2 channels
    Channel layout : L R
    Sampling rate : 48.0 kHz
    Frame rate : 46.875 FPS (1024 SPF)
    Compression mode : Lossy
    Stream size : 22.2 MiB (3%)
    Title : Wakanim
    Language : Russian
    Default : Yes
    Forced : No
    Audio #2
    ID : 3
    Format : AAC LC
    Format/Info : Advanced Audio Codec Low Complexity
    Codec ID : A_AAC-2
    Duration : 24 min 12 s
    Bit rate : 128 kb/s
    Channel(s) : 2 channels
    Channel layout : L R
    Sampling rate : 48.0 kHz
    Frame rate : 46.875 FPS (1024 SPF)
    Compression mode : Lossy
    Stream size : 22.2 MiB (3%)
    Language : Japanese
    Default : No
    Forced : No
    Text
    ID : 4
    Format : ASS
    Codec ID : S_TEXT/ASS
    Codec ID/Info : Advanced Sub Station Alpha
    Duration : 23 min 52 s
    Bit rate : 174 b/s
    Count of elements : 409
    Compression mode : Lossless
    Stream size : 30.5 KiB (0%)
    Language : Russian
    Default : Yes
    Forced : No

    _________________


    Последний раз редактировалось: -InVoKeR- (2020-10-04 15:44), всего редактировалось 1 раз
  • Создавать темы 04-Окт-2020 15:43 (спустя 1 месяц 15 дней)

    Обновлено 04.10.2020. Добавлена 9-10-11-12-13-я серии. Приятного просмотра. Релиз завершён!

    _________________
    Показать сообщения:    
    Главная  Аниме  Сериалы  Аниме Сериалы (HD)

    Текущее время: 31-Окт 00:15

    Часовой пояс: UTC + 5



    Вы не можете начинать темы
    Вы не можете отвечать на сообщения
    Вы не можете редактировать свои сообщения
    Вы не можете удалять свои сообщения
    Вы не можете голосовать в опросах
    Вы не можете прикреплять файлы к сообщениям
    Вы не можете скачивать файлы