Токийский Гуль / Tokyo Ghoul [TV-2] [12 из 12] (Морита Сюхэй) [2015, Мистика, драма, ужасы, BDRip-HEVC 1080p] MVO (Kansai) :: UZTOR.PW Лучший трекер в зоне TAS-IX!
 
Уважаемые гости сайта! Добро Пожаловать на наш торрент трекер,где Вы можете бесплатно скачать любой Софт,Фильмы,Музыку и многое другое! А так же постоянно ведется набор модераторов и релизеров. Зарегистрируйтесь сейчас, чтобы получить доступ ко всем функциям. После регистрации или входа на сайт вы сможете создавать темы, отвечать на сообщения и скачивать файлы.

Навигация по Торрент раздачам и Форум и Стол заказов и Группы



 Токийский Гуль / Tokyo Ghoul [TV-2] [12 из 12] (Морита Сюхэй) [2015, Мистика, драма, ужасы, BDRip-HEVC 1080p] MVO (Kansai)

Главная  Аниме  Сериалы  Аниме Сериалы (HD)
Статистика раздачи
Нет
 
     
 
 
 
Автор Сообщение
  • Создавать темы 16-Авг-2020 21:26

    Токийский Гуль / Tokyo Ghoul--Год выхода: 2015
    Страна: Япония
    Студия: Studio Pierrot
    Жанр: мистика, драма, ужасы
    Продолжительность: 12x 00:24:10
    Перевод: Любительский многоголосый Kansai-Режиссер: Морита Сюхэй-В ролях: Ханаэ Нацуки, Амамия Сора, Ханадзава Кана, Тоёнага Тосиюки, Асанума Синтаро, Суго Такаюки, Кониси Кацуюки, Морохоси Сумирэ, Мияно Мамору, Окава Тору, Накамура Юйти, Сакурай Такахиро, Такагаки Аяхи, Ниси Ринтаро, Кадзи Юки, Кугимия Риэ, Ито Кэнтаро, Накано Ютака, Уэда Юдзи, Цуда Кэндзиро-О фильме: Раса гулей существует с незапамятных времен. Ее представители вовсе не против людей, они их даже любят – преимущественно в сыром виде. Любители человечины внешне неотличимы от нас, сильны, быстры и живучи – но их мало, потому гули выработали строгие правила охоты и маскировки, а нарушителей наказывают сами или по-тихому сдают борцам с нечистью. В век науки люди знают про гулей, но как говорится, привыкли. Власти не считают людоедов угрозой, более того, рассматривают их как идеальную основу для создания суперсолдат. Эксперименты идут уже давно…
    Ничего этого не ведал Кэн Канэки, робкий и невзрачный токийский первокурсник, безнадежно влюбленный в красавицу-интеллектуалку Ризэ, частую гостью в кафе «Место встречи», где парень подрабатывает официантом. Не думал Кэн, что скоро самому придется стать гулем, и многие знакомые предстанут в неожиданном свете. Главному герою предстоит мучительный поиск нового пути, ибо он понял, что люди и гули похожи: просто одни друг друга жрут в прямом смысле, другие – в переносном. Правда жизни жестока, переделать ее нельзя, и силен тот, кто не отворачивается. А дальше уж как-нибудь!-Качество: BDRip-HEVC 1080p
    Формат: MKV
    Видео: x265, 1920x1080, 1294 kbps, 23.976 fps
    Звук (Rus(int)): AC-3, 192 kbps, 48,0 KHz, 2 ch | [Kansai]
    Звук (Japanese): AAC, 96 kbps, 48,0 KHz, 2 ch | [Original]
    Субтитры: русские (встроенные полный перевод, ASS)--

    MediaInfo

    Общее
    Уникальный идентификатор : 93748932634801099042320815837265023612 (0x4687633DC9E74CC25DDDAE80C1C8527C)
    Полное имя : F:\Anime\Tokyo Ghoul\Tokyo Ghoul 13.mkv
    Формат : Matroska
    Версия формата : Version 4
    Размер файла : 272 Мбайт
    Продолжительность : 24 м. 6 с.
    Общий поток : 1 576 Кбит/сек
    Название фильма : New Surge
    Дата кодирования : UTC 2018-08-21 02:15:40
    Программа кодирования : mkvmerge v25.0.0 ('Prog Noir') 64-bit
    Библиотека кодирования : libebml v1.3.6 + libmatroska v1.4.9
    Attachments : ALEX_.ttf / Angie-Bold.ttf / BinaryITC TT Light.ttf / brushsp.ttf
    Видео
    Идентификатор : 3
    Формат : HEVC
    Формат/Информация : High Efficiency Video Coding
    Профиль формата : Main@L5@Main
    Идентификатор кодека : V_MPEGH/ISO/HEVC
    Продолжительность : 24 м. 5 с.
    Битрейт : 1 285 Кбит/сек
    Ширина : 1 920 пикселей
    Высота : 1 080 пикселей
    Соотношение сторон : 16:9
    Режим частоты кадров : Постоянный
    Частота кадров : 23,976 (24000/1001) кадра/сек
    Цветовое пространство : YUV
    Субдискретизация насыщенности : 4:2:0
    Битовая глубина : 8 бит
    Бит/(Пиксели*Кадры) : 0.026
    Размер потока : 221 Мбайт (81%)
    Default : Да
    Forced : Нет
    Аудио #1
    Идентификатор : 1
    Формат : AC-3
    Формат/Информация : Audio Coding 3
    Коммерческое название : Dolby Digital
    Идентификатор кодека : A_AC3
    Продолжительность : 24 м. 5 с.
    Вид битрейта : Постоянный
    Битрейт : 192 Кбит/сек
    Каналы : 2 канала
    Channel layout : L R
    Частота : 48,0 КГц
    Частота кадров : 31,250 кадров/сек (1536 SPF)
    Метод сжатия : С потерями
    Размер потока : 33,1 Мбайт (12%)
    Язык : Russian
    Service kind : Complete Main
    Default : Да
    Forced : Нет
    Аудио #2
    Идентификатор : 4
    Формат : AAC LC
    Формат/Информация : Advanced Audio Codec Low Complexity
    Идентификатор кодека : A_AAC-2
    Продолжительность : 24 м. 5 с.
    Битрейт : 96,0 Кбит/сек
    Каналы : 2 канала
    Channel layout : L R
    Частота : 48,0 КГц
    Частота кадров : 46,875 кадров/сек (1024 SPF)
    Метод сжатия : С потерями
    Задержка видео : 20 мс.
    Размер потока : 16,6 Мбайт (6%)
    Заголовок : Japanese Stereo
    Язык : Japanese
    Default : Нет
    Forced : Нет
    Текст
    Идентификатор : 2
    Формат : ASS
    Идентификатор кодека : S_TEXT/ASS
    Идентификатор кодека/Информация : Advanced Sub Station Alpha
    Продолжительность : 24 м. 1 с.
    Битрейт : 80 бит/сек
    Count of elements : 227
    Метод сжатия : Без потерь
    Размер потока : 14,2 Кбайт (0%)
    Язык : Russian
    Default : Да
    Forced : Нет
    Меню
    00:00:00.033 : en:Intro
    00:01:04.970 : en:OP
    00:02:35.000 : en:Part A
    00:09:33.050 : en:Part B
    00:22:32.050 : en:ED
    00:24:02.080 : en:Preview

    _________________
    Показать сообщения:    
    Главная  Аниме  Сериалы  Аниме Сериалы (HD)

    Текущее время: 26-Окт 08:29

    Часовой пояс: UTC + 5



    Вы не можете начинать темы
    Вы не можете отвечать на сообщения
    Вы не можете редактировать свои сообщения
    Вы не можете удалять свои сообщения
    Вы не можете голосовать в опросах
    Вы не можете прикреплять файлы к сообщениям
    Вы не можете скачивать файлы