Убийца гоблинов: Корона гоблина / Goblin Slayer: Goblin's Crown / ゴブリンスレイヤー Goblin's Crown (Фильм) (Одзаки Такахару) [2020, Экшен, приключения, драма, фэнтези, мистика, сенен, BDRip-HEVC 1080p] MVO (AniDUB), DVO (AniStar) :: UZTOR.PW Лучший трекер в зоне TAS-IX!
 
Уважаемые гости сайта! Добро Пожаловать на наш торрент трекер,где Вы можете бесплатно скачать любой Софт,Фильмы,Музыку и многое другое! А так же постоянно ведется набор модераторов и релизеров. Зарегистрируйтесь сейчас, чтобы получить доступ ко всем функциям. После регистрации или входа на сайт вы сможете создавать темы, отвечать на сообщения и скачивать файлы.

Навигация по Торрент раздачам и Форум и Стол заказов и Группы



 Убийца гоблинов: Корона гоблина / Goblin Slayer: Goblin's Crown / ゴブリンスレイヤー Goblin's Crown (Фильм) (Одзаки Такахару) [2020, Экшен, приключения, драма, фэнтези, мистика, сенен, BDRip-HEVC 1080p] MVO (AniDUB), DVO (AniStar)

Главная  Аниме  Манга и OVA  Артбуки и Полнометражки
Статистика раздачи
Нет
 
     
 
 
 
Автор Сообщение
  • Создавать темы 16-Авг-2020 20:58

    Убийца гоблинов: Корона гоблина / Goblin Slayer: Goblin's Crown
    ゴブリンスレイヤー Goblin's Crown
    --
    Год выхода: 2020
    Страна: Япония
    Студия: White Fox
    Жанр: экшен, приключения, драма, фэнтези, мистика, сенен
    Продолжительность: 01:00:04
    Перевод:
      Любительский многоголосый (закадровый) | AniDUB
      Любительский двухголосный (закадровый) | AniStar
    -Режиссер: Одзаки Такахару-Автор оригинала: Кагю Кумо
    Снято по ранобэ: Убийца гоблинов-В ролях: Умэхара Юйтиро, Огура Юй, Тояма Нао, Накамура Юйти, Сугита Томокадзу-О фильме: На поиски пропавшей дворянки по имени Благородная фехтовальщица, отправляют группу убийц гоблинов в гористую страну зимы на холодный север. Они обнаруживают организованное гнездо гоблинов, которые захватили древнюю дварфскую крепость. Благородная фехтовальщица была подвергнута пыткам и изнасилованию гоблинами, и теперь она сталкивается с эмоциональным испытанием, будучи единственной выжившей в своей группе. С помощью Жрицы она пытается переосмыслить свои чувства, чтобы не идти тем же путем, что и Убийца Гоблинов. В то время как Goblin Slayer Goblins Crown будет эмоциональным путешествием, оно также будет насыщенной феерией. Герой Убийцы гоблинов теперь встретиться со своим новым, сильным противником Гоблин Паладин. Это свирепое существо будет охотиться на них, когда они попытаются сбежать из холодных гор...-Качество: BDRip-HEVC 1080p
    Формат: MKV
    Видео: HEVC/x265, 1920x1080, 1364 kbps, 23,976 fps
    Звук (Rus(int)): AC-3, 192 kbps, 48,0 KHz, 2 ch | [AniDUB]
    Звук (Rus(int)): AC-3, 192 kbps, 48,0 KHz, 2 ch | [AniStar]
    Звук (Japanese): AC-3, 192 kbps, 48,0 KHz, 2 ch | [Original]
    Субтитры: русские (встроенные полный перевод, ASS)--

    MediaInfo

    Общее
    Уникальный идентификатор                 : 289639886569369142321487119429367464616 (0xD9E69CF1B730387A7A98B534E0C782A8)
    Полное имя                               : F:\Anime\Goblin Slayer Movie\Goblin Slayer Movie. Goblin's Crown.mkv
    Формат                                   : Matroska
    Версия формата                           : Version 4
    Размер файла                             : 835 Мбайт
    Продолжительность                        : 1 ч. 0 м.
    Общий поток                              : 1 943 Кбит/сек
    Название фильма                          : Goblin Slayer Movie. Goblin's Crown
    Дата кодирования                         : UTC 2020-08-06 09:53:38
    Программа кодирования                    : mkvmerge v48.0.0 ('Fortress Around Your Heart') 64-bit
    Библиотека кодирования                   : libebml v1.4.0 + libmatroska v1.6.0
    Видео
    Идентификатор                            : 1
    Формат                                   : HEVC
    Формат/Информация                        : High Efficiency Video Coding
    Профиль формата                          : Main 10@L5@Main
    Идентификатор кодека                     : V_MPEGH/ISO/HEVC
    Продолжительность                        : 1 ч. 0 м.
    Битрейт                                  : 1 364 Кбит/сек
    Ширина                                   : 1 920 пикселей
    Высота                                   : 1 080 пикселей
    Соотношение сторон                       : 16:9
    Режим частоты кадров                     : Постоянный
    Частота кадров                           : 23,976 (24000/1001) кадра/сек
    Цветовое пространство                    : YUV
    Субдискретизация насыщенности            : 4:2:0
    Битовая глубина                          : 10 бит
    Бит/(Пиксели*Кадры)                      : 0.027
    Размер потока                            : 586 Мбайт (70%)
    Библиотека кодирования                   : x265 3.2+38-fdbd4e4a2aff:[Windows][GCC 9.2.1][64 bit] 10bit
    Настройки программы                      : cpuid=1111039 / frame-threads=4 / numa-pools=+,- / wpp / no-pmode / no-pme / no-psnr / no-ssim / log-level=2 / csv / csv-log-level=2 / input-csp=1 / input-res=1920x1080 / interlace=0 / total-frames=0 / level-idc=0 / high-tier=1 / uhd-bd=0 / ref=6 / no-allow-non-conformance / no-repeat-headers / annexb / no-aud / no-hrd / info / hash=0 / no-temporal-layers / open-gop / min-keyint=23 / keyint=480 / gop-lookahead=0 / bframes=8 / b-adapt=2 / b-pyramid / bframe-bias=0 / rc-lookahead=100 / lookahead-slices=4 / scenecut=40 / hist-scenecut=0 / radl=0 / no-splice / no-intra-refresh / ctu=64 / min-cu-size=8 / rect / no-amp / max-tu-size=32 / tu-inter-depth=4 / tu-intra-depth=4 / limit-tu=0 / rdoq-level=2 / dynamic-rd=0.00 / no-ssim-rd / signhide / no-tskip / nr-intra=0 / nr-inter=0 / no-constrained-intra / strong-intra-smoothing / max-merge=5 / limit-refs=3 / limit-modes / me=3 / subme=6 / merange=57 / temporal-mvp / no-frame-dup / hme / Level / merange / L0,L1,L2=16,32,57 / weightp / weightb / no-analyze-src-pics / deblock=0:0 / sao / no-sao-non-deblock / rd=4 / selective-sao=4 / no-early-skip / rskip / no-fast-intra / no-tskip-fast / no-cu-lossless / b-intra / no-splitrd-skip / rdpenalty=0 / psy-rd=0.80 / psy-rdoq=1.30 / no-rd-refine / no-lossless / cbqpoffs=0 / crqpoffs=0 / rc=crf / crf=22.0 / qcomp=0.60 / qpstep=2 / stats-write=0 / stats-read=0 / ipratio=1.40 / pbratio=1.30 / aq-mode=3 / aq-strength=0.80 / cutree / zone-count=0 / no-strict-cbr / qg-size=32 / no-rc-grain / qpmax=69 / qpmin=0 / no-const-vbv / sar=0 / overscan=0 / videoformat=5 / range=0 / colorprim=2 / transfer=2 / colormatrix=2 / chromaloc=0 / display-window=0 / cll=0,0 / min-luma=0 / max-luma=1023 / log2-max-poc-lsb=8 / vui-timing-info / vui-hrd-info / slices=1 / no-opt-qp-pps / no-opt-ref-list-length-pps / no-multi-pass-opt-rps / scenecut-bias=0.05 / hist-threshold=0.01 / no-opt-cu-delta-qp / no-aq-motion / no-hdr10 / no-hdr10-opt / no-dhdr10-opt / no-idr-recovery-sei / analysis-reuse-level=0 / analysis-save-reuse-level=0 / analysis-load-reuse-level=0 / scale-factor=0 / refine-intra=0 / refine-inter=0 / refine-mv=1 / refine-ctu-distortion=0 / no-limit-sao / ctu-info=0 / no-lowpass-dct / refine-analysis-type=0 / copy-pic=1 / max-ausize-factor=1.0 / no-dynamic-refine / no-single-sei / no-hevc-aq / no-svt / no-field / qp-adaptation-range=1.00 / no-scenecut-aware-qpconformance-window-offsets / right=0 / bottom=0
    Язык                                     : Japanese
    Default                                  : Да
    Forced                                   : Нет
    Цветовой диапазон                        : Limited
    Аудио #1
    Идентификатор                            : 2
    Формат                                   : AC-3
    Формат/Информация                        : Audio Coding 3
    Коммерческое название                    : Dolby Digital
    Идентификатор кодека                     : A_AC3
    Продолжительность                        : 1 ч. 0 м.
    Вид битрейта                             : Постоянный
    Битрейт                                  : 192 Кбит/сек
    Каналы                                   : 2 канала
    Channel layout                           : L R
    Частота                                  : 48,0 КГц
    Частота кадров                           : 31,250 кадров/сек (1536 SPF)
    Метод сжатия                             : С потерями
    Размер потока                            : 82,5 Мбайт (10%)
    Заголовок                                : AniDUB
    Язык                                     : Russian
    Service kind                             : Complete Main
    Default                                  : Да
    Forced                                   : Нет
    Аудио #2
    Идентификатор                            : 3
    Формат                                   : AC-3
    Формат/Информация                        : Audio Coding 3
    Коммерческое название                    : Dolby Digital
    Идентификатор кодека                     : A_AC3
    Продолжительность                        : 1 ч. 0 м.
    Вид битрейта                             : Постоянный
    Битрейт                                  : 192 Кбит/сек
    Каналы                                   : 2 канала
    Channel layout                           : L R
    Частота                                  : 48,0 КГц
    Частота кадров                           : 31,250 кадров/сек (1536 SPF)
    Метод сжатия                             : С потерями
    Размер потока                            : 82,5 Мбайт (10%)
    Заголовок                                : AniStar
    Язык                                     : Russian
    Service kind                             : Complete Main
    Default                                  : Нет
    Forced                                   : Нет
    Аудио #3
    Идентификатор                            : 4
    Формат                                   : AC-3
    Формат/Информация                        : Audio Coding 3
    Коммерческое название                    : Dolby Digital
    Идентификатор кодека                     : A_AC3
    Продолжительность                        : 1 ч. 0 м.
    Вид битрейта                             : Постоянный
    Битрейт                                  : 192 Кбит/сек
    Каналы                                   : 2 канала
    Channel layout                           : L R
    Частота                                  : 48,0 КГц
    Частота кадров                           : 31,250 кадров/сек (1536 SPF)
    Метод сжатия                             : С потерями
    Размер потока                            : 82,5 Мбайт (10%)
    Заголовок                                : Original
    Язык                                     : Japanese
    Service kind                             : Complete Main
    Default                                  : Нет
    Forced                                   : Нет
    Текст #1
    Идентификатор                            : 5
    Формат                                   : ASS
    Идентификатор кодека                     : S_TEXT/ASS
    Идентификатор кодека/Информация          : Advanced Sub Station Alpha
    Продолжительность                        : 4 с. 800 мс.
    Битрейт                                  : 830 бит/сек
    Count of elements                        : 5
    Метод сжатия                             : Без потерь
    Размер потока                            : 498 байт (0%)
    Заголовок                                : Надписи
    Язык                                     : Russian
    Default                                  : Да
    Forced                                   : Нет
    Текст #2
    Идентификатор                            : 6
    Формат                                   : ASS
    Идентификатор кодека                     : S_TEXT/ASS
    Идентификатор кодека/Информация          : Advanced Sub Station Alpha
    Продолжительность                        : 55 м. 53 с.
    Битрейт                                  : 122 бит/сек
    Count of elements                        : 742
    Метод сжатия                             : Без потерь
    Размер потока                            : 50,1 Кбайт (0%)
    Заголовок                                : Полные субтитры
    Язык                                     : Russian
    Default                                  : Нет
    Forced                                   : Нет
    Меню
    00:00:00.000                             : en:Chapter 01
    00:02:18.305                             : en:Chapter 02
    00:11:22.307                             : en:Chapter 03
    00:25:21.478                             : en:Chapter 04
    00:34:40.662                             : en:Chapter 05
    00:44:10.064                             : en:Chapter 06
    00:52:24.308                             : en:Chapter 07
    00:56:34.224                             : en:Chapter 08

    _________________
    Показать сообщения:    
    Главная  Аниме  Манга и OVA  Артбуки и Полнометражки

    Текущее время: 26-Окт 08:41

    Часовой пояс: UTC + 5



    Вы не можете начинать темы
    Вы не можете отвечать на сообщения
    Вы не можете редактировать свои сообщения
    Вы не можете удалять свои сообщения
    Вы не можете голосовать в опросах
    Вы не можете прикреплять файлы к сообщениям
    Вы не можете скачивать файлы