Убийца гоблинов / Goblin Slayer [TV-1] [12 из 12] (Такахару Одзаки) [2018, Приключения, фэнтези, экшен, WEBRip-HEVC 1080p] DUB (StudioBand), MVO (Kansai, AniLibria), DVO (AniDUB) :: UZTOR.PW Лучший трекер в зоне TAS-IX!
 
Уважаемые гости сайта! Добро Пожаловать на наш торрент трекер,где Вы можете бесплатно скачать любой Софт,Фильмы,Музыку и многое другое! А так же постоянно ведется набор модераторов и релизеров. Зарегистрируйтесь сейчас, чтобы получить доступ ко всем функциям. После регистрации или входа на сайт вы сможете создавать темы, отвечать на сообщения и скачивать файлы.

Навигация по Торрент раздачам и Форум и Стол заказов и Группы



 Убийца гоблинов / Goblin Slayer [TV-1] [12 из 12] (Такахару Одзаки) [2018, Приключения, фэнтези, экшен, WEBRip-HEVC 1080p] DUB (StudioBand), MVO (Kansai, AniLibria), DVO (AniDUB)

Главная  Аниме  Сериалы  Аниме Сериалы (HD)
Статистика раздачи
Нет
 
     
 
 
 
Автор Сообщение
  • Создавать темы 16-Авг-2020 20:34

    Убийца гоблинов / Goblin Slayer--Год выхода: 2018
    Страна: Япония
    Студия: White Fox
    Жанр: Приключения, фэнтези, экшен
    Продолжительность: 00:23:40
    Перевод:
      Дубляж | StudioBand [Wakanim]
      Любительский многоголосый Kansai
      Любительский многоголосый AniLibria
      Любительский двухголосный AniDUB
    -Режиссер: Такахару Одзаки-В ролях: Юитиро Умэхара, Юи Огури, Юка Игути, Нао Тояма, Маая Утида, Ёко Хикаса, Ёсицугу Мацуока, Юити Накамура, Томокадзу Сэки-О фильме: Действие происходит в фантазийном мире, похожем на компьютерную игру, в котором живут различные монстры и авантюристы, выполняющие миссии. Гильдия новичков, в которую вступает наша главная героиня в качестве жрицы, решает отправиться на своё первое задание. И для этого они выбрали самое простое, а именно стандартное задание для новичков - убийство гоблинов. Но почему-то, вместо успешного выполнения первой миссии, их ждали непосильные трудности, с которыми они справиться не смогли. Спасти несчастных горемык от зловещих врагов приходит Убийца гоблинов, который не жалеет на их истребление ни своих сил, ни времени. Наша жрица настолько прониклась этим героем, что решила покинуть свою гильдию и помогать Убийце в его длительной миссии. Сражаясь вместе с ним, девушка учится новым заклинаниям и становится всё сильнее. Но почему отважный Убийца нацелен именно на гоблинов, самых слабых и безопасных монстров в этом мире? И почему же гильдии новичков не удалось тогда успешно выполнить базовое задание?-Качество: WEBRip-HEVC 1080p
    Формат: MKV
    Видео: HEVC/x265, 1920x1080, 962 kbps, 23.976 fps
    Звук (Rus(int)): AC-3, 192 kbps, 48,0 KHz, 2 ch | [StudioBand]
    Звук (Rus(int)): AC-3, 192 kbps, 48,0 KHz, 2 ch | [Kansai]
    Звук (Rus(int)): AC-3, 192 kbps, 48,0 KHz, 2 ch | [AniLibria]
    Звук (Rus(int)): AC-3, 192 kbps, 48,0 KHz, 2 ch | [AniDUB]
    Звук (Japanese): AC-3, 192 kbps, 48,0 KHz, 2 ch | [Original]
    Субтитры: русские (встроенные полный перевод, ASS) - SovetRomantica--

    MediaInfo

    General
    Уникальный идентификатор : 125487648678765786198947710934953634184 (0x5E680AC217B49DF42514E1BC87422988)
    Полное имя : D:\Films\ANIME\Убица Гоблинов\Goblin Slayer [x265]\Goblin Slayer 01 [x265].mkv
    Формат : Matroska
    Версия формата : Version 4
    Размер файла : 326 MiB
    Продолжительность : 23 min 40 s
    Общий поток : 1 926 kb/s
    Дата кодирования : UTC 2019-02-18 11:41:20
    Программа кодирования : mkvmerge v31.0.0 ('Dolores In A Shoestand') 64-bit
    Библиотека кодирования : libebml v1.3.6 + libmatroska v1.4.9
    Attachments : OpenSans-Semibold.ttf
    Video
    Идентификатор : 1
    Формат : HEVC
    Формат/Информация : High Efficiency Video Coding
    Профиль формата : Format Range@L4@Main
    Идентификатор кодека : V_MPEGH/ISO/HEVC
    Продолжительность : 23 min 40 s
    Битрейт : 962 kb/s
    Ширина : 1 920 pixels
    Высота : 1 080 pixels
    Соотношение сторон : 16:9
    Режим частоты кадров : Constant
    Частота кадров : 23.976 (24000/1001) FPS
    Частота кадров в оригинале : 23.976 (23976/1000) FPS
    Цветовое пространство : YUV
    Субдискретизация насыщенности : 4:2:0
    Битовая глубина : 12 bits
    Бит/(Пиксели*Кадры) : 0.019
    Размер потока : 163 MiB (50%)
    Библиотека кодирования : x265 2.8+15-d693a5aa5541:[Windows][MSVC 1914][64 bit] 12bit
    Настройки программы : cpuid=1111039 / frame-threads=4 / numa-pools=16 / wpp / no-pmode / no-pme / no-psnr / no-ssim / log-level=2 / input-csp=1 / input-res=1920x1080 / interlace=0 / total-frames=34047 / level-idc=0 / high-tier=1 / uhd-bd=0 / ref=3 / no-allow-non-conformance / no-repeat-headers / annexb / no-aud / no-hrd / info / hash=0 / no-temporal-layers / no-open-gop / min-keyint=23 / keyint=250 / gop-lookahead=0 / bframes=4 / b-adapt=2 / b-pyramid / bframe-bias=0 / rc-lookahead=20 / lookahead-slices=6 / scenecut=40 / radl=0 / no-intra-refresh / ctu=64 / min-cu-size=8 / no-rect / no-amp / max-tu-size=32 / tu-inter-depth=1 / tu-intra-depth=1 / limit-tu=0 / rdoq-level=0 / dynamic-rd=0.00 / no-ssim-rd / signhide / no-tskip / nr-intra=0 / nr-inter=0 / no-constrained-intra / strong-intra-smoothing / max-merge=2 / limit-refs=3 / no-limit-modes / me=1 / subme=2 / merange=57 / temporal-mvp / weightp / no-weightb / no-analyze-src-pics / deblock=0:0 / sao / no-sao-non-deblock / rd=3 / no-early-skip / rskip / no-fast-intra / no-tskip-fast / no-cu-lossless / no-b-intra / no-splitrd-skip / rdpenalty=0 / psy-rd=2.00 / psy-rdoq=0.00 / no-rd-refine / no-lossless / cbqpoffs=0 / crqpoffs=0 / rc=crf / crf=22.0 / qcomp=0.60 / qpstep=4 / stats-write=0 / stats-read=0 / ipratio=1.40 / pbratio=1.30 / aq-mode=0 / aq-strength=1.00 / no-cutree / zone-count=0 / no-strict-cbr / qg-size=64 / rc-grain / qpmax=69 / qpmin=0 / no-const-vbv / sar=0 / overscan=0 / videoformat=5 / range=0 / colorprim=2 / transfer=2 / colormatrix=2 / chromaloc=0 / display-window=0 / max-cll=0,0 / min-luma=0 / max-luma=4095 / log2-max-poc-lsb=8 / vui-timing-info / vui-hrd-info / slices=1 / no-opt-qp-pps / no-opt-ref-list-length-pps / no-multi-pass-opt-rps / scenecut-bias=0.05 / no-opt-cu-delta-qp / no-aq-motion / no-hdr / no-hdr-opt / no-dhdr10-opt / no-idr-recovery-sei / analysis-reuse-level=5 / scale-factor=0 / refine-intra=0 / refine-inter=0 / refine-mv=0 / no-limit-sao / ctu-info=0 / no-lowpass-dct / refine-mv-type=0 / copy-pic=1 / max-ausize-factor=1.0 / no-dynamic-refine / no-single-sei
    Default : Yes
    Forced : No
    Audio #1
    Идентификатор : 2
    Формат : AC-3
    Формат/Информация : Audio Coding 3
    Коммерческое название : Dolby Digital
    Идентификатор кодека : A_AC3
    Продолжительность : 23 min 40 s
    Вид битрейта : Constant
    Битрейт : 192 kb/s
    Каналы : 2 channels
    Channel layout : L R
    Частота : 48.0 kHz
    Частота кадров : 31.250 FPS (1536 SPF)
    Метод сжатия : Lossy
    Размер потока : 32.5 MiB (10%)
    Заголовок : Ваканим
    Язык : Russian
    Service kind : Complete Main
    Default : Yes
    Forced : No
    Audio #2
    Идентификатор : 3
    Формат : AC-3
    Формат/Информация : Audio Coding 3
    Коммерческое название : Dolby Digital
    Идентификатор кодека : A_AC3
    Продолжительность : 23 min 40 s
    Вид битрейта : Constant
    Битрейт : 192 kb/s
    Каналы : 2 channels
    Channel layout : L R
    Частота : 48.0 kHz
    Частота кадров : 31.250 FPS (1536 SPF)
    Метод сжатия : Lossy
    Размер потока : 32.5 MiB (10%)
    Заголовок : Кансай
    Язык : Russian
    Service kind : Complete Main
    Default : No
    Forced : No
    Audio #3
    Идентификатор : 4
    Формат : AC-3
    Формат/Информация : Audio Coding 3
    Коммерческое название : Dolby Digital
    Идентификатор кодека : A_AC3
    Продолжительность : 23 min 40 s
    Вид битрейта : Constant
    Битрейт : 192 kb/s
    Каналы : 2 channels
    Channel layout : L R
    Частота : 48.0 kHz
    Частота кадров : 31.250 FPS (1536 SPF)
    Метод сжатия : Lossy
    Размер потока : 32.5 MiB (10%)
    Заголовок : Анилибрия
    Язык : Russian
    Service kind : Complete Main
    Default : No
    Forced : No
    Audio #4
    Идентификатор : 5
    Формат : AC-3
    Формат/Информация : Audio Coding 3
    Коммерческое название : Dolby Digital
    Идентификатор кодека : A_AC3
    Продолжительность : 23 min 40 s
    Вид битрейта : Constant
    Битрейт : 192 kb/s
    Каналы : 2 channels
    Channel layout : L R
    Частота : 48.0 kHz
    Частота кадров : 31.250 FPS (1536 SPF)
    Метод сжатия : Lossy
    Размер потока : 32.5 MiB (10%)
    Заголовок : Анидаб
    Язык : Russian
    Service kind : Complete Main
    Default : No
    Forced : No
    Audio #5
    Идентификатор : 6
    Формат : AC-3
    Формат/Информация : Audio Coding 3
    Коммерческое название : Dolby Digital
    Идентификатор кодека : A_AC3
    Продолжительность : 23 min 40 s
    Вид битрейта : Constant
    Битрейт : 192 kb/s
    Каналы : 2 channels
    Channel layout : L R
    Частота : 48.0 kHz
    Частота кадров : 31.250 FPS (1536 SPF)
    Метод сжатия : Lossy
    Размер потока : 32.5 MiB (10%)
    Заголовок : Оригинал
    Язык : Japanese
    Service kind : Complete Main
    Default : No
    Forced : No
    Text
    Идентификатор : 7
    Формат : ASS
    Идентификатор кодека : S_TEXT/ASS
    Идентификатор кодека/Информация : Advanced Sub Station Alpha
    Продолжительность : 23 min 3 s
    Битрейт : 120 b/s
    Count of elements : 273
    Метод сжатия : Lossless
    Размер потока : 20.3 KiB (0%)
    Язык : Russian
    Default : Yes
    Forced : No

    _________________
    Показать сообщения:    
    Главная  Аниме  Сериалы  Аниме Сериалы (HD)

    Текущее время: 26-Окт 09:54

    Часовой пояс: UTC + 5



    Вы не можете начинать темы
    Вы не можете отвечать на сообщения
    Вы не можете редактировать свои сообщения
    Вы не можете удалять свои сообщения
    Вы не можете голосовать в опросах
    Вы не можете прикреплять файлы к сообщениям
    Вы не можете скачивать файлы