Повелитель / Overlord (Ито Наоюки) [TV-1] [13 из 13][2015, Фентези, магия, BDRip-HEVC 1080p] MVO (AniDUB) :: UZTOR.PW Лучший трекер в зоне TAS-IX!
 
Уважаемые гости сайта! Добро Пожаловать на наш торрент трекер,где Вы можете бесплатно скачать любой Софт,Фильмы,Музыку и многое другое! А так же постоянно ведется набор модераторов и релизеров. Зарегистрируйтесь сейчас, чтобы получить доступ ко всем функциям. После регистрации или входа на сайт вы сможете создавать темы, отвечать на сообщения и скачивать файлы.

Навигация по Торрент раздачам и Форум и Стол заказов и Группы



 Повелитель / Overlord (Ито Наоюки) [TV-1] [13 из 13][2015, Фентези, магия, BDRip-HEVC 1080p] MVO (AniDUB)

Главная  Аниме  Сериалы  Аниме Сериалы (HD)
Статистика раздачи
Нет
 
     
 
 
 
Автор Сообщение
  • Создавать темы 15-Авг-2020 21:17

    Повелитель / Overlord--
    Страна: Япония
    Жанр: фентези, магия
    Тип: TV-1 (13 эп.) 24мин.
    Год выхода: 2015
    Студия: Madhouse Studio
    Режиссер: Ито Наоюки-Перевод: Любительский многоголосый, закадровый AniDUB-В ролях: Хино Сатоси, Хара Юми, Уэсака Сумирэ, Като Эмири, Утияма Юми, Като Масаюки, Миякэ Кэнта, Тиба Сигэру-О фильме: История начинается с последнего дня существования популярной онлайн-игры «Иггдрасиль». Главный герой, Момонга, решил остаться в любимой игре до самого последнего момента. Однако сервер не прекратил свою работу, и Момонга застревает в своем скелетоподобном персонаже и переносится в другой мир. Теперь "Могучему Властелину" придется открыть для себя новый мир и столкнуться с многочисленными испытаниями.У него нет ни родни, ни друзей, ни места под солнцем, но он приложит все усилия для того, чтобы завоевать новый мир, которым стала для него игра.-Качество: BDRip-HEVC 1080p
    Формат: MKV
    Видео: HEVC, 1920x1080, 2345 kbps, 23.976 fps,
    Аудио: Звук (Rus(int)): AC-3, 192 kbps, 48,0 KHz, 2 ch | [AniDUB]--

    MediaInfo

    Общее
    Уникальный идентификатор : 56254292408272964416088268204535269078 (0x2A522EC082145D773F9D74AB054946D6)
    Полное имя : F:\Фильмы\Overlord [1080p]\Overlord 01.mkv
    Формат : Matroska
    Версия формата : Version 4
    Размер файла : 449 Мбайт
    Продолжительность : 24 м. 14 с.
    Общий поток : 2591 Кбит/сек
    Название фильма : [Doki] Overlord - 01 (1920x1080 HEVC BD FLAC).mkv
    Дата кодирования : UTC 2018-01-25 11:05:29
    Программа кодирования : mkvmerge v19.0.0 ('Brave Captain') 64-bit
    Библиотека кодирования : libebml v1.3.5 + libmatroska v1.4.8
    Attachments : GandhiSans-Regular.otf / KozGoPr6N-Medium.otf / KozGoPro-Bold.otf / VestaPro-Bold.otf / Maiandra GD.TTF / Maiandra GD_0.TTF / Yikes!.TTF
    Видео
    Идентификатор : 1
    Формат : HEVC
    Формат/Информация : High Efficiency Video Coding
    Профиль формата : Main 10@L5@Main
    Идентификатор кодека : V_MPEGH/ISO/HEVC
    Продолжительность : 24 м. 14 с.
    Битрейт : 2345 Кбит/сек
    Ширина : 1920 пикселей
    Высота : 1080 пикселей
    Соотношение сторон : 16:9
    Режим частоты кадров : Постоянный
    Частота кадров : 23,976 (24000/1001) кадра/сек
    Цветовое пространство : YUV
    Субдискретизация насыщенности : 4:2:0
    Битовая глубина : 10 бит
    Бит/(Пиксели*Кадры) : 0.047
    Размер потока : 406 Мбайт (91%)
    Заголовок : HEVC
    Библиотека кодирования : x265 1.8+203-c7bcea62a571:[Windows][MSVC 1900][64 bit] 10bit
    Настройки программы : wpp / ctu=64 / min-cu-size=8 / max-tu-size=32 / tu-intra-depth=3 / tu-inter-depth=3 / me=3 / subme=4 / merange=57 / rect / amp / max-merge=4 / temporal-mvp / no-early-skip / rdpenalty=0 / no-tskip / no-tskip-fast / strong-intra-smoothing / no-lossless / no-cu-lossless / no-constrained-intra / no-fast-intra / open-gop / no-temporal-layers / interlace=0 / keyint=250 / min-keyint=23 / scenecut=40 / rc-lookahead=40 / lookahead-slices=0 / bframes=8 / bframe-bias=0 / b-adapt=2 / ref=5 / limit-refs=1 / limit-modes / weightp / weightb / aq-mode=1 / qg-size=32 / aq-strength=1.00 / cbqpoffs=0 / crqpoffs=0 / rd=6 / psy-rd=0.30 / rdoq-level=2 / psy-rdoq=1.00 / no-rd-refine / signhide / deblock / sao / no-sao-non-deblock / b-pyramid / cutree / no-intra-refresh / rc=crf / crf=16.0 / qcomp=0.60 / qpmin=0 / qpmax=51 / qpstep=4 / ipratio=1.40 / pbratio=1.30
    Язык : Japanese
    Default : Да
    Forced : Нет
    Аудио
    Идентификатор : 2
    Формат : AC-3
    Формат/Информация : Audio Coding 3
    Коммерческое название : Dolby Digital
    Идентификатор кодека : A_AC3
    Продолжительность : 24 м. 14 с.
    Вид битрейта : Постоянный
    Битрейт : 192 Кбит/сек
    Каналы : 2 канала
    ChannelLayout : L R
    Частота : 48,0 КГц
    Частота кадров : 31,250 кадров/сек (1536 SPF)
    Метод сжатия : С потерями
    Размер потока : 33,3 Мбайт (7%)
    Язык : Russian
    ServiceKind/String : Complete Main
    Default : Да
    Forced : Нет
    Меню
    00:00:00.000 : en:Prologue
    00:01:45.011 : en:OP
    00:03:14.940 : en:Main
    00:22:09.984 : en:ED
    00:23:39.991 : en:Preview

    _________________
    Показать сообщения:    
    Главная  Аниме  Сериалы  Аниме Сериалы (HD)

    Текущее время: 23-Окт 04:52

    Часовой пояс: UTC + 5



    Вы не можете начинать темы
    Вы не можете отвечать на сообщения
    Вы не можете редактировать свои сообщения
    Вы не можете удалять свои сообщения
    Вы не можете голосовать в опросах
    Вы не можете прикреплять файлы к сообщениям
    Вы не можете скачивать файлы