Сага о Винланде / Vinland Saga (Сюхэй Ябута) [TV-1] [24 из 24] [2019, Приключения, драма, исторический, WEBRip-HEVC 1080p] MVO (AniLibria) :: UZTOR.PW Лучший трекер в зоне TAS-IX!
 
Уважаемые гости сайта! Добро Пожаловать на наш торрент трекер,где Вы можете бесплатно скачать любой Софт,Фильмы,Музыку и многое другое! А так же постоянно ведется набор модераторов и релизеров. Зарегистрируйтесь сейчас, чтобы получить доступ ко всем функциям. После регистрации или входа на сайт вы сможете создавать темы, отвечать на сообщения и скачивать файлы.

Навигация по Торрент раздачам и Форум и Стол заказов и Группы



 Сага о Винланде / Vinland Saga (Сюхэй Ябута) [TV-1] [24 из 24] [2019, Приключения, драма, исторический, WEBRip-HEVC 1080p] MVO (AniLibria)

Главная  Аниме  Сериалы  Аниме Сериалы (HD)
Статистика раздачи
Нет
 
     
 
 
 
Автор Сообщение
  • Создавать темы 11-Авг-2020 22:24

    Сага о Винланде / Vinland Saga-- Год выпуска: 2019
    Выпущено: Япония, Wit Studio
    Жанр: Приключения, драма, исторический
    Продолжительность: 24 х ~ 00:25:00
    Перевод: Любительский многоголосый AniLibria-Режиссер: Сюхэй Ябута-В ролях: Юто Уэмура, Сидзука Исигами, Кэнъитиро Мацуда, Наоя Утида, Кэнсё Оно, Акио Оцука, Хироки Ясумото-О фильме: 1013 год. Исландский юноша Торфинн — сын одного из величайших воинов викингов. И когда его отца убивает в схватке предводитель дружины Аскеладд, юноша становится на путь воина и отправляется мстить. Будучи гордым и не желая бесчестной схватки, он вступает в дружину Аскеладда с целью победить его в поединке, но в итоге судьба затягивает его в водоворот кровавых событий эпохи, ставка в которых — корона Англии.-Качество: WEBRip-HEVC 1080p
    Формат: MKV
    Видео: HEVC, ~ 1400 Кбит/с, 1920x1080
    Аудио: Русский (AС3, 2 ch, 192 Кбит/с)
    Аудио: Японский (AС3, 2 ch, 192 Кбит/с)
    Субтитры: Русские (Софтсаб)--

    MediaInfo

    Общее
    Уникальный идентификатор : 12730813438347169198939054131535602056 (0x993DD9035F653ED6B4505D4B902E188)
    Полное имя : F:\Фильмы\Vinland Saga - AniLibria.TV [WEBRip 1080p-LQ HEVC]\Vinland_Saga_[01]_[AniLibria_TV]_[WEBRip_1080p-LQ_HEVC].mkv
    Формат : Matroska
    Версия формата : Version 4
    Размер файла : 327 Мбайт
    Продолжительность : 28 м. 45 с.
    Общий поток : 1593 Кбит/сек
    Дата кодирования : UTC 2019-07-11 15:08:18
    Программа кодирования : mkvmerge v33.1.0 ('Primrose') 64-bit
    Библиотека кодирования : libebml v1.3.7 + libmatroska v1.5.0
    Attachments : verdanab_1.ttf / VERDANAZ_0.TTF / trebucbd.ttf / trebuc.ttf
    Видео
    Идентификатор : 1
    Формат : HEVC
    Формат/Информация : High Efficiency Video Coding
    Профиль формата : Main 10@L5.1@High
    Идентификатор кодека : V_MPEGH/ISO/HEVC
    Продолжительность : 28 м. 45 с.
    Битрейт : 1441 Кбит/сек
    Ширина : 1920 пикселей
    Высота : 1080 пикселей
    Соотношение сторон : 16:9
    Режим частоты кадров : Постоянный
    Частота кадров : 23,976 (23976/1000) кадра/сек
    Цветовое пространство : YUV
    Субдискретизация насыщенности : 4:2:0
    Битовая глубина : 10 бит
    Бит/(Пиксели*Кадры) : 0.029
    Размер потока : 296 Мбайт (90%)
    Заголовок : Original [basegame]
    Библиотека кодирования : x265 3.0_Au+3-5b90dc59b57a:[Windows][GCC 6.3.0][64 bit] 10bit
    Настройки программы : cpuid=1111039 / frame-threads=3 / numa-pools=12 / wpp / no-pmode / no-pme / no-psnr / no-ssim / log-level=2 / input-csp=1 / input-res=1920x1080 / interlace=0 / total-frames=0 / level-idc=51 / high-tier=1 / uhd-bd=0 / ref=3 / no-allow-non-conformance / no-repeat-headers / annexb / no-aud / no-hrd / info / hash=0 / no-temporal-layers / no-open-gop / min-keyint=23 / keyint=250 / gop-lookahead=0 / bframes=4 / b-adapt=2 / b-pyramid / bframe-bias=0 / rc-lookahead=20 / lookahead-slices=6 / scenecut=40 / radl=0 / no-splice / no-intra-refresh / ctu=64 / min-cu-size=8 / no-rect / no-amp / max-tu-size=32 / tu-inter-depth=1 / tu-intra-depth=1 / limit-tu=0 / rdoq-level=0 / dynamic-rd=0.00 / no-ssim-rd / signhide / no-tskip / nr-intra=0 / nr-inter=0 / no-constrained-intra / strong-intra-smoothing / max-merge=2 / limit-refs=3 / no-limit-modes / me=1 / subme=2 / merange=57 / temporal-mvp / weightp / no-weightb / no-analyze-src-pics / deblock=0:0 / sao / no-sao-non-deblock / rd=3 / no-early-skip / rskip / no-fast-intra / no-tskip-fast / no-cu-lossless / no-b-intra / no-splitrd-skip / rdpenalty=0 / psy-rd=2.00 / psy-rdoq=0.00 / no-rd-refine / no-lossless / cbqpoffs=0 / crqpoffs=0 / rc=crf / crf=23.0 / qcomp=0.60 / qpstep=4 / stats-write=0 / stats-read=0 / vbv-maxrate=160000 / vbv-bufsize=160000 / vbv-init=0.9 / crf-max=0.0 / crf-min=0.0 / ipratio=1.40 / pbratio=1.30 / aq-mode=2 / aq-strength=1.00 / cutree / zone-count=0 / no-strict-cbr / qg-size=32 / no-rc-grain / qpmax=69 / qpmin=0 / no-const-vbv / sar=0 / overscan=0 / videoformat=5 / range=0 / colorprim=2 / transfer=2 / colormatrix=2 / chromaloc=0 / display-window=0 / max-cll=0,0 / min-luma=0 / max-luma=1023 / log2-max-poc-lsb=8 / vui-timing-info / vui-hrd-info / slices=1 / no-opt-qp-pps / no-opt-ref-list-length-pps / no-multi-pass-opt-rps / scenecut-bias=0.05 / no-opt-cu-delta-qp / no-aq-motion / no-hdr / no-hdr-opt / no-dhdr10-opt / no-idr-recovery-sei / analysis-reuse-level=5 / scale-factor=0 / refine-intra=0 / refine-inter=0 / refine-mv=0 / refine-ctu-distortion=0 / no-limit-sao / ctu-info=0 / no-lowpass-dct / refine-analysis-type=0 / copy-pic=1 / max-ausize-factor=1.0 / no-dynamic-refine / no-single-sei / no-hevc-aq / qp-adaptation-range=1.00
    Язык : Japanese
    Default : Да
    Forced : Да
    Аудио #1
    Идентификатор : 2
    Формат : Opus
    Идентификатор кодека : A_OPUS
    Продолжительность : 28 м. 45 с.
    Битрейт : 72,5 Кбит/сек
    Каналы : 2 канала
    ChannelLayout : L R
    Частота : 48,0 КГц
    Частота кадров : 50,000 кадров/сек (960 SPF)
    Метод сжатия : С потерями
    Размер потока : 14,9 Мбайт (5%)
    Заголовок : AniLibria.TV
    Язык : Russian
    Default : Да
    Forced : Да
    Аудио #2
    Идентификатор : 3
    Формат : Opus
    Идентификатор кодека : A_OPUS
    Продолжительность : 28 м. 44 с.
    Битрейт : 72,0 Кбит/сек
    Каналы : 2 канала
    ChannelLayout : L R
    Частота : 48,0 КГц
    Частота кадров : 50,000 кадров/сек (960 SPF)
    Метод сжатия : С потерями
    Размер потока : 14,8 Мбайт (5%)
    Заголовок : Original [basegame]
    Язык : Japanese
    Default : Нет
    Forced : Нет
    Текст #1
    Идентификатор : 4
    Формат : ASS
    Идентификатор кодека : S_TEXT/ASS
    Идентификатор кодека/Информация : Advanced Sub Station Alpha
    Продолжительность : 5 м. 0 с.
    Битрейт : 9 бит/сек
    ElementCount : 3
    Метод сжатия : Без потерь
    Размер потока : 345 байт (0%)
    Заголовок : Надписи [Anku&MutagenB]
    Язык : Russian
    Default : Да
    Forced : Да
    Текст #2
    Идентификатор : 5
    Формат : ASS
    Идентификатор кодека : S_TEXT/ASS
    Идентификатор кодека/Информация : Advanced Sub Station Alpha
    Продолжительность : 25 м. 56 с.
    Битрейт : 104 бит/сек
    ElementCount : 296
    Метод сжатия : Без потерь
    Размер потока : 19,8 Кбайт (0%)
    Заголовок : Полные [Anku&MutagenB]
    Язык : Russian
    Default : Нет
    Forced : Нет

    _________________
    Показать сообщения:    
    Главная  Аниме  Сериалы  Аниме Сериалы (HD)

    Текущее время: 26-Окт 08:56

    Часовой пояс: UTC + 5



    Вы не можете начинать темы
    Вы не можете отвечать на сообщения
    Вы не можете редактировать свои сообщения
    Вы не можете удалять свои сообщения
    Вы не можете голосовать в опросах
    Вы не можете прикреплять файлы к сообщениям
    Вы не можете скачивать файлы