Школа мертвецов / High School of the Dead [TV-1 + OVA] [Серии 1-12 из 12 + 1] (Араки Тэцуро) [2010-2011, Приключения, ужасы, этти, BDRip] MVO (Shiza Project) | Без Цензуры :: UZTOR.PW Лучший трекер в зоне TAS-IX!
 
Уважаемые гости сайта! Добро Пожаловать на наш торрент трекер,где Вы можете бесплатно скачать любой Софт,Фильмы,Музыку и многое другое! А так же постоянно ведется набор модераторов и релизеров. Зарегистрируйтесь сейчас, чтобы получить доступ ко всем функциям. После регистрации или входа на сайт вы сможете создавать темы, отвечать на сообщения и скачивать файлы.

Навигация по Торрент раздачам и Форум и Стол заказов и Группы



 Школа мертвецов / High School of the Dead [TV-1 + OVA] [Серии 1-12 из 12 + 1] (Араки Тэцуро) [2010-2011, Приключения, ужасы, этти, BDRip] MVO (Shiza Project) | Без Цензуры

Главная  Аниме  Сериалы  Аниме Сериалы
Статистика раздачи
Скачал: [ 1 ]
 
     
 
 
 
Автор Сообщение
  • Создавать темы 11-Авг-2020 21:46

    Школа мертвецов / High School of the Dead-- Год выхода: c 05.07.2010 по 20.09.2010
    Производство: Япония
    Студия: Madhouse Studios
    Жанр: приключения, ужасы, этти
    Продолжительность: 12 Серий x ~00:25:00 + 01 Серия x ~00:16:00
    Перевод: Любительский (Многоголосый Закадровый) Shiza Project-Режиссер: Араки Тэцуро
    Автор оригинала: Сато Дайсукэ, Сато Сёдзи
    Снято по манге: Gakuen Mokushiroku: High School of the Dead-В главных ролях: Дзюнъити Сувабэ, Марина Иноуэ, Эри Китамура, Миюки Савасиро, Нобуюки Хияма, Юкари Фукуи, Тейлор Ханна, Леральдо Анцальдуа, Джессика Бун, Мэгги Флекно-Роли Озвучили: Dancel, Saylot, Obee, Wozwald, Nate, Viki, Pandora, Лизавета, Abe, Bvia, Kitsune-Описание: Страшная болезнь, превращающая людей в зомби, вырвалась на свободу, и мир рухнул в одночасье. Беда неслышно подкралась и к частной академии Фудзими, лишь немногие школьники и учителя смогли распознать ее и бежать от толпы живых мертвецов. Дороги выживших разошлись. В центре сюжета – судьба тесной группы, невольный лидер которой, 17-летний Такаси Комуро, готов на все, чтобы спасти подругу детства Рэй Миямото. По пути на волю к ним присоединяются другие ученики – президент клуба кэндо Саэко Бусудзима, фанат оружия Кота Хирано и самозваный гений Сая Такаги. Пополнив ряды еще и школьной медсестрой Сидзукой Марикавой, беглецы вырываются в город – а там все только хуже.
    Конец света быстро срывает маски, показывая, кто держится друзей, а кто готов толкнуть падающего; кто хочет просто выжить, а кто желает еще и половить рыбку в мутных водах Апокалипсиса. Такаси и компания вскоре убеждаются, что временами опаснее всего не зомби, а такие же «товарищи по несчастью». Героям придется пройти ускоренный курс суровой науки выживания, чтобы найти родных и близких и не потерять надежду. Надо жить дальше, а надежда будет всегда!-Возрастное ограничение: 18+ [Запрещено для детей]
    Цензура: Отсутствует-Качество: BDRip
    Формат: AVI
    Видео: 720x400 (16:9), 23.976 fps, 1 762 kb/s (0.255 bit/pixel)
    Аудио №1: AC3, 48.0 kHz, 2 ch, 192 kb/s, CBR | | Shiza Project
    Аудио №2: AC3, 48.0 kHz, 2 ch, 192 kb/s, CBR | | Japan (Оригинал)
    Субтитры: Русские--

    Эпизоды

    1 Весна мертвецов
    2. Побег от мертвецов
    3. Демократия мертвецов
    4. Среди мертвецов
    5. Улицы мертвецов
    6. В ночи мертвецов
    7. Мёртвая ночь, мёртвая толпа
    8. Путь домой — дохлый номер
    9. Меч и мертвецы
    10. Правила дома мертвецов
    11. Мёртвый шторм
    12. Парад мертвецов
    13. Скитальцы среди мертвецов [OVA]

    MediaInfo

    Общее
    Полное имя : [Deadmau- RAWS] High.School.Of.The.Dead.S01.2010.RUS.JAP.BDRip.Deadmauvlad.Ep.01.avi
    Формат : AVI
    Формат/Информация : Audio Video Interleave
    Размер файла : 366 Мбайт
    Продолжительность : 23 м. 41 с.
    Общий поток : 2160 Кбит/сек
    Название фильма : [Deadmau- RAWS] Школа.мертвецов.S01.2010.RUS.JAP.BDRip.Deadmauvlad.Серия.01
    Режиссёр : Encoder by Deadmauvlad
    Жанр : приключения, этти, ужасы
    Программа кодирования : VirtualDubMod 1.5.10.3 | www.virtualdub-fr.org || (build 2550/release)
    Формат оригинала/Имя : Аниме
    Авторское право : Encoder by Deadmauvlad
    Примечание : Encoder by Deadmauvlad
    Видео
    Идентификатор : 0
    Формат : MPEG-4 Visual
    Профиль формата : Advanced Simple@L5
    Настройки формата : BVOP1 / Custom Matrix
    Параметр BVOP формата : 1
    Параметр QPel формата : Нет
    Параметр GMC формата : Без точки перехода
    Параметр матрицы формата : Выборочная
    Идентификатор кодека : XVID
    Идентификатор кодека/Подсказка : XviD
    Продолжительность : 23 м. 41 с.
    Битрейт : 1762 Кбит/сек
    Ширина : 720 пикселей
    Высота : 400 пикселей
    Соотношение сторон : 16:9
    Частота кадров : 23,976 (24000/1001) кадра/сек
    Цветовое пространство : YUV
    Субдискретизация насыщенности : 4:2:0
    Битовая глубина : 8 бит
    Тип развёртки : Прогрессивная
    Метод сжатия : С потерями
    Бит/(Пиксели*Кадры) : 0.255
    Размер потока : 299 Мбайт (82%)
    Библиотека кодирования : XviD 73
    Аудио #1
    Идентификатор : 1
    Формат : AC-3
    Формат/Информация : Audio Coding 3
    Коммерческое название : Dolby Digital
    Идентификатор кодека : 2000
    Продолжительность : 23 м. 40 с.
    Вид битрейта : Постоянный
    Битрейт : 192 Кбит/сек
    Каналы : 2 канала
    ChannelLayout : L R
    Частота : 48,0 КГц
    Частота кадров : 31,250 кадров/сек (1536 SPF)
    Метод сжатия : С потерями
    Размер потока : 32,5 Мбайт (9%)
    Выравнивание : Разделение по промежуткам
    Продолжительность промежутка : 42 мс. (1,00 видеокадр)
    Время предзагрузки промежутка : 500 мс.
    Аудио #2
    Идентификатор : 2
    Формат : AC-3
    Формат/Информация : Audio Coding 3
    Коммерческое название : Dolby Digital
    Идентификатор кодека : 2000
    Продолжительность : 23 м. 41 с.
    Вид битрейта : Постоянный
    Битрейт : 192 Кбит/сек
    Каналы : 2 канала
    ChannelLayout : L R
    Частота : 48,0 КГц
    Частота кадров : 31,250 кадров/сек (1536 SPF)
    Метод сжатия : С потерями
    Размер потока : 32,5 Мбайт (9%)
    Выравнивание : Разделение по промежуткам
    Продолжительность промежутка : 42 мс. (1,00 видеокадр)
    Время предзагрузки промежутка : 500 мс.

    _________________
    Показать сообщения:    
    Главная  Аниме  Сериалы  Аниме Сериалы

    Текущее время: 01-Ноя 05:14

    Часовой пояс: UTC + 5



    Вы не можете начинать темы
    Вы не можете отвечать на сообщения
    Вы не можете редактировать свои сообщения
    Вы не можете удалять свои сообщения
    Вы не можете голосовать в опросах
    Вы не можете прикреплять файлы к сообщениям
    Вы не можете скачивать файлы