Демоны старшей школы / Высшая школа DxD / High School DxD [Сезоны 1-4 + OVA + SP] (Янагисава Тэцуя) [2012-2018, Комедия, фэнтези, этти, BDRip] MVO (AniLibria), DVO (AniDUB) | Без Цензуры :: UZTOR.PW Лучший трекер в зоне TAS-IX!
 
Уважаемые гости сайта! Добро Пожаловать на наш торрент трекер,где Вы можете бесплатно скачать любой Софт,Фильмы,Музыку и многое другое! А так же постоянно ведется набор модераторов и релизеров. Зарегистрируйтесь сейчас, чтобы получить доступ ко всем функциям. После регистрации или входа на сайт вы сможете создавать темы, отвечать на сообщения и скачивать файлы.

Навигация по Торрент раздачам и Форум и Стол заказов и Группы



 Демоны старшей школы / Высшая школа DxD / High School DxD [Сезоны 1-4 + OVA + SP] (Янагисава Тэцуя) [2012-2018, Комедия, фэнтези, этти, BDRip] MVO (AniLibria), DVO (AniDUB) | Без Цензуры

Главная  Аниме  Сериалы  Аниме Сериалы
Статистика раздачи
Скачал: [ 2 ]
 
     
 
 
 
Автор Сообщение
  • Создавать темы 11-Авг-2020 21:16

    Демоны старшей школы / Высшая школа DxD / High School DxD-- Год выхода: c 06.01.2012 по 03.07.2018
    Сезон: 1 - 4 + OVA + SP
    Страна: Япония
    Студия: TNK
    Жанр: комедия, фэнтези, этти
    Продолжительность: 53 эп. x ~ 00:25:00-Перевод: 1 Любительский многоголосый Zendos & Eladiel & Lupin (Anilibria)
    Перевод: 2
      [1 сезон] - любительский многоголосый закадровый - [Lord Alukart, Nika Lenina] AniDub;
      [2-3 сезон] - любительский многоголосый закадровый - [Cuba77, Nika Lenina] AniDub
    Перевод: 3 Любительский двухголосый (муж./жен.) от Zendos & Eladiel [TV 00-12] (Onibaku Group)
    Перевод: 4 Русские субтитры + оригинал-Режиссер: Янагисава Тэцуя-Описание: Что нужно от жизни простому 17-летнему японскому школьнику? Иссэй Хёдо отлично знает ответ, ведь ради этого он и записался в бывшую женскую академию Комао! Хёдо наивно полагал, что после начала совместного обучения в условиях дефицита парней станет королем и познает весну жизни, однако идет второй год, девушки все так же преследуют немногих красавчиков, а герой с друзьями кусают локти и ищут дыры в женских раздевалках. О таких же, как королева школы Риас Гремори, остается только мечтать. Впрочем, жаркие мольбы Иссэя всем богам юности возымели эффект. Боги решили испытать парня и послали ему подружку, которая на первом же свидании… вонзила герою полметра стали в живот.-Качество: BDRip
    Формат: avi
    Видео: 704x400 (1.76:1), 23.976 fps, XviD build 73 ~1672 kbps avg, 0.25 bit/pixel
    Звук #1: 48 kHz, AC3 Dolby Digital, 2/0 (L,R) ch, ~192 kbps [Anilibria] [01-02 Сезон] Внутри контейнера
    Звук #2: 48 kHz, AC3 Dolby Digital, 2/0 (L,R) ch, ~192 kbps [AniDub ] 01-03 Сезон [Отдельным файлом в раздаче]
    Звук #3: 48 kHz, AC3 Dolby Digital, 2/0 (L,R) ch, ~192 kbps [Onibaku Group][3-4 сезон] Внутри контейнера
    Звук #4: 48 kHz, AC3 Dolby Digital, 2/0 (L,R) ch, ~192 kbps [оригинал]--

    Эпизоды

    Сезон - 1:
    01. I Made a Girlfriend
    02. I Stopped Being a Human
    03. I Made a New Friend!
    04. Save My Friend!
    05. I`m Going to Overthrow my Ex-Girlfriend!
    06. My Job as a Devil!
    07. I`ll Get a Familiar!
    08. I Pick a Fight!
    09. My Training Begins!
    10. Beginning of the Decisive Battle!
    11. High Praises During the Decisive Battle!
    12. I Came to Carry Out My Promise!
    OVA-1:
    1. Boobs Bloom!
    2. I Wish For Boobs!
    Сезон - 2:
    1. Another Disquieting Premonition!
    2. The Holy Sword Is Here!
    3. I`ll Destroy the Holy Sword!
    4. A Strong Enemy Appeared!
    5. Decisive Battle at Kuoh Academy!
    6. Go, Occult Research Club!
    7. Vampire of the Empty Classroom: Summer! Bathing Suits! I`m in Trouble!
    8. Vampire of the Empty Classroom: Open House Begins!
    9. I Have a Junior!
    10. Vampire of the Empty Classroom: Various Three-way Deadlocks!
    11. Vampire of the Empty Classroom: The Leaders` Summit Begins!
    12. Vampire of the Empty Classroom: Clash of the Twin Sky Dragons!
    OVA-2:
    1. High School DxD New: Teishi Kyoushitsu no Vampire
    Сезон - 3:
    01. Summer Break! Off to the Underworld!
    02. Young Devils Gather!
    03. Cat and Dragon!
    04. Interception, Commence!
    05. The Last Day of Summer Break!
    06. Second Trimester Has Started!
    07. The Night Before Battle!
    08. We Will Save Asia!
    09. Dragon of Dragon
    10. The Occult Club Disappears!?
    11. I Will Fight!
    12. Any Time, for All Time!
    OVA-3:
    1. High School DxD Born: Yomigaeranai Fushichou
    Сезон - 4:
    00. Святость за спортзалом.
    01. Да, мы едем в Киото!
    02. Внезапное нападение во время поездки!
    03. Фракция Героев!
    04. Решающая битва! Семья Гремори против фракции Героев в Киото!
    05. Мой потенциал реализован!
    06. Адское завершение школьной поездки!
    07. Мы готовимся к школьному фестивалю!
    08. Девичье сердце сложно понять.
    09. Решающую битву среди сильнейших, начать!
    10. Как член семьи Риас Гремори.
    11. Повелитель Красного Дракона против Короля Льва.
    12. Львиное сердце школьного фестиваля.
    [S01]
    Special 1: We're Going Sun Bathing!
    Special 2: Akeno-Senpai's Private Training!
    Special 3: A Little Bold, Koneko-Chan... Nyan!
    Special 4: The Untold Story of The Dress Break's Birth!
    Special 5: Making Udon!
    Special 6: Asia Transforms!
    [S03]
    Special
    SP1. Rias and Akeno: Clash of the Women?! | Риас и Акено, Девичья схватка?!
    SP2. Church-Trio`s Underwear Amen! | Три пары нижнего белья!
    SP3. Koneko`s Wizard Treatment Meow | Метод лечения Конеко ~ Мяу
    SP4. Levia-tan and Sou-tan
    SP5. Special 5
    SP6. Special 6

    MediaInfo

    Общее
    Полное имя : F:\Anime\Демоны.Старшей.Школы.S01-04.OVA.01-04.BDRip.Deadmauvlad\S01 (2012)\Демоны.Старшей.Школы.S01.BDRip.Deadmauvlad.Ep.01.avi
    Формат : AVI
    Формат/Информация : Audio Video Interleave
    Размер файла : 351 Мбайт
    Продолжительность : 23 м. 42 с.
    Общий поток : 2071 Кбит/сек
    Название фильма : Демоны.Старшей.Школы.S01.BDRip.Deadmauvlad.Ep.01
    Режиссёр : Deadmauvlad
    Жанр : Этти
    Программа кодирования : VirtualDubMod 1.5.10.3 | www.virtualdub-fr.org || (build 2550/release)
    Формат оригинала/Имя : Аниме
    Авторское право : Озвучка Anilibria
    Примечание : Encoder by Deadmauvlad
    Видео
    Идентификатор : 0
    Формат : MPEG-4 Visual
    Профиль формата : Advanced Simple@L5
    Настройки формата : BVOP1 / Custom Matrix
    Параметр BVOP формата : 1
    Параметр QPel формата : Нет
    Параметр GMC формата : Без точки перехода
    Параметр матрицы формата : Выборочная
    Идентификатор кодека : XVID
    Идентификатор кодека/Подсказка : XviD
    Продолжительность : 23 м. 42 с.
    Битрейт : 1673 Кбит/сек
    Ширина : 704 пикселя
    Высота : 400 пикселей
    Соотношение сторон : 16:9
    Частота кадров : 23,976 (24000/1001) кадра/сек
    Цветовое пространство : YUV
    Субдискретизация насыщенности : 4:2:0
    Битовая глубина : 8 бит
    Тип развёртки : Прогрессивная
    Метод сжатия : С потерями
    Бит/(Пиксели*Кадры) : 0.248
    Размер потока : 284 Мбайт (81%)
    Библиотека кодирования : XviD 73
    Аудио #1
    Идентификатор : 1
    Формат : AC-3
    Формат/Информация : Audio Coding 3
    Коммерческое название : Dolby Digital
    Идентификатор кодека : 2000
    Продолжительность : 23 м. 42 с.
    Вид битрейта : Постоянный
    Битрейт : 192 Кбит/сек
    Каналы : 2 канала
    ChannelLayout : L R
    Частота : 44,1 КГц
    Частота кадров : 28,711 кадров/сек (1536 SPF)
    Метод сжатия : С потерями
    Размер потока : 32,6 Мбайт (9%)
    Выравнивание : Разделение по промежуткам
    Продолжительность промежутка : 42 мс. (1,00 видеокадр)
    Время предзагрузки промежутка : 500 мс.
    ServiceKind/String : Complete Main
    Аудио #2
    Идентификатор : 2
    Формат : AC-3
    Формат/Информация : Audio Coding 3
    Коммерческое название : Dolby Digital
    Идентификатор кодека : 2000
    Продолжительность : 23 м. 42 с.
    Вид битрейта : Постоянный
    Битрейт : 192 Кбит/сек
    Каналы : 2 канала
    ChannelLayout : L R
    Частота : 48,0 КГц
    Частота кадров : 31,250 кадров/сек (1536 SPF)
    Метод сжатия : С потерями
    Размер потока : 32,6 Мбайт (9%)
    Выравнивание : Разделение по промежуткам
    Продолжительность промежутка : 42 мс. (1,00 видеокадр)
    Время предзагрузки промежутка : 500 мс.
    ServiceKind/String : Complete Main-[AudioInfo] AniDUB
    Общее
    Полное имя : F:\Anime\Демоны.Старшей.Школы.S01-04.OVA.01-04.BDRip.Deadmauvlad\S01 (2012)\AniDub\Демоны.Старшей.Школы.S01.BDRip.Deadmauvlad.Ep.01.ac3
    Формат : AC-3
    Формат/Информация : Audio Coding 3
    Коммерческое название : Dolby Digital
    Размер файла : 32,6 Мбайт
    Продолжительность : 23 м. 42 с.
    Режим общего битрейта : Постоянный
    Общий поток : 192 Кбит/сек
    Аудио
    Формат : AC-3
    Формат/Информация : Audio Coding 3
    Коммерческое название : Dolby Digital
    Продолжительность : 23 м. 42 с.
    Вид битрейта : Постоянный
    Битрейт : 192 Кбит/сек
    Каналы : 2 канала
    ChannelLayout : L R
    Частота : 44,1 КГц
    Частота кадров : 28,711 кадров/сек (1536 SPF)
    Метод сжатия : С потерями
    Размер потока : 32,6 Мбайт
    ServiceKind/String : Complete Main
    Присутствуют моменты без Озвучки (новые сцены без цензуры), при просмотре дополнительно используйте субтитры в папке


    _________________
    Показать сообщения:    
    Главная  Аниме  Сериалы  Аниме Сериалы

    Текущее время: 01-Ноя 06:14

    Часовой пояс: UTC + 5



    Вы не можете начинать темы
    Вы не можете отвечать на сообщения
    Вы не можете редактировать свои сообщения
    Вы не можете удалять свои сообщения
    Вы не можете голосовать в опросах
    Вы не можете прикреплять файлы к сообщениям
    Вы не можете скачивать файлы