По велению адской сестры / Shinmai Maou no Testament [TV-1,2 + OVA] [Серии 22 из 22 + OVA 3 из 3] (Сайто Хисаси) [2015-2018, Гарем, комедия, романтика, сёнэн, фэнтези, этти, BDRip] DVO (AniDUB) | Без Цензуры :: UZTOR.PW Лучший трекер в зоне TAS-IX!
 
Уважаемые гости сайта! Добро Пожаловать на наш торрент трекер,где Вы можете бесплатно скачать любой Софт,Фильмы,Музыку и многое другое! А так же постоянно ведется набор модераторов и релизеров. Зарегистрируйтесь сейчас, чтобы получить доступ ко всем функциям. После регистрации или входа на сайт вы сможете создавать темы, отвечать на сообщения и скачивать файлы.

Навигация по Торрент раздачам и Форум и Стол заказов и Группы



 По велению адской сестры / Shinmai Maou no Testament [TV-1,2 + OVA] [Серии 22 из 22 + OVA 3 из 3] (Сайто Хисаси) [2015-2018, Гарем, комедия, романтика, сёнэн, фэнтези, этти, BDRip] DVO (AniDUB) | Без Цензуры

Главная  Аниме  Сериалы  Аниме Сериалы
Статистика раздачи
Скачал: [ 1 ]
 
     
 
 
 
Автор Сообщение
  • Создавать темы 06-Авг-2020 20:23

    По велению адской сестры / Shinmai Maou no Testament-- Год выхода: 2015-2018
    Страна: Япония
    Студия: Production IMS
    Жанр: гарем, комедия, приключения, романтика, сёнэн, фэнтези, этти
    Продолжительность: 26 серий x ~00:26:00; + 01 серия x ~00:58:00 (ОВА 2018 года)
    Перевод: Любительский (двухголосый закадровый) Ancord, NikaLenina [S01-02+ 02 OVA] [AniDub]
    Перевод: Любительский (двухголосый закадровый) Sergei Vasya, Nika Lenina [OVA 2018] [AniDub]
    Цензура: Отсутствует +18-Автор оригинала: Уэсу Тэцуто
    Снято по ранобэ: По велению адской сестры-Режиссер: Сайто Хисаси-В главных ролях: Брайан Бикок, Кира Баклэнд, Лорен Ланда, Юити Накамура, Kayli Mills, Maureen Price, Лэндон МакДональд, Денин Мелоди, Аяка Асаи, Ю Асакава-Описание: Главным герой этого «довольно рискованного экшена» станет Басара Тодзё – ученик первого класса старшей школы, которого нехило озадачил родной папашка со своими дурацкими вопросами: мол, сынок, ты же как-то говорил, что сестричку хочешь... В общем, слова за слово и выяснилось, что батя надумал повторно жениться, а у героя появятся даже не одна, а две сексапильные сводные сестрички. Кстати, сразу после свадьбы молодожёны собираются в заморское путешествие, а разнополых подростков в период активного полового созревания оставляют одних на хозяйстве. Казалось бы, нетрудно предугадать дальнейшее развитие событий, но дело принимает неожиданный оборот, когда выясняется, что сестрички Мио и Мария Нарусе – начинающие дьяволица и суккуб соответственно (кто же тогда их мама?). Басара чуть было не заключает с ними контракт, который сделал бы его навеки слугой дьявольских сил, но из-за закравшейся ошибки всё происходит наоборот: у героя в полном подчинении оказываются две сексуальные демоницы. Однако в нагрузку к эротическим приключениям, которые с этого момента начинают случаться в жизни Басары, идут и реальные опасности: ведь на жизнь Мио регулярно покушаются разнообразные потусторонние чудища и герои...-Качество: BDRip
    Контейнер: AVI
    Кодек: XviD
    Видео: 720x400 (16:9), 23.976 fps, 1 466 kb/s (0.212 bit/pixel)
    Аудио №1: AC-3, 48,0 КГц, 2 ch, 192 /сек, CBR | | AniDub
    Аудио №2: AC-3, 48,0 КГц, 2 ch, 192 /сек, CBR | | Japan (Оригинал)
    Русские Субтитры: Есть в раздаче (Полный Перевод)--

    Эпизоды

    Первый Сезон
    01 - День, когда я обзавёлся сестрёнкой.
    02 - Первый контракт между хозяином и слугой.
    03 - Воссоединение и пробел в доверии.
    04 - Пока печаль не достигнет нуля.
    05 - Утренние хлопоты сестричек-демонов.
    06 - Груз крепнущих чувств.
    07 - Глубины любви и ненависти.
    08 - Эротичный суккуб без тормозов.
    09 - Достоинства и недостатки хозяина и слуги.
    10 - Горечь измены.
    11 - Шпионаж… Что будет дальше.
    12 - Для этой ночи, для этой секунды.
    Завет дьявольских сестриц ОВА
    Второй Сезон
    01. Чем могу быть полезен.
    02. Среди тайн и усугубляющихся подозрений.
    03. Мои заветные чувства к тебе.
    04. Среди переплетения заговоров.
    05. Среди ветра на поле битвы.
    06. Между реальностью и собственной истиной.
    07. Среди сплетения заговоров и желаний.
    08. Претендующие на будущее.
    09. За гранью Вечного Сна.
    10. Последствия неизбежного.
    11 - По велению адской сестры: Взрыв ОВА
    12 - По велению адской сестры: Отбытие OVA

    MediaInfo

    Общее
    Полное имя : [Deadmau- RAWS] По велению адской сестры.S01.RUS.JAP.Без.Цензуры.BDRip.Deadmauvlad.Серия.01.avi
    Формат : AVI
    Формат/Информация : Audio Video Interleave
    Размер файла : 336 Мбайт
    Продолжительность : 25 м. 12 с.
    Общий поток : 1864 Кбит/сек
    Название фильма : [Deadmau- RAWS] По велению адской сестры.S01.RUS.JAP.Без.Цензуры.BDRip.Deadmauvlad.Серия.01
    Режиссёр : Encoder by Deadmauvlad
    Жанр : фэнтези, эротика, этти
    Программа кодирования : VirtualDubMod 1.5.10.3 | www.virtualdub-fr.org || (build 2550/release)
    Формат оригинала/Имя : Аниме
    Авторское право : Encoder by Deadmauvlad
    Примечание : Encoder by Deadmauvlad
    Видео
    Идентификатор : 0
    Формат : MPEG-4 Visual
    Профиль формата : Advanced Simple@L5
    Настройки формата : BVOP1 / Custom Matrix
    Параметр BVOP формата : 1
    Параметр QPel формата : Нет
    Параметр GMC формата : Без точки перехода
    Параметр матрицы формата : Выборочная
    Идентификатор кодека : XVID
    Идентификатор кодека/Подсказка : XviD
    Продолжительность : 25 м. 12 с.
    Битрейт : 1466 Кбит/сек
    Ширина : 720 пикселей
    Высота : 400 пикселей
    Соотношение сторон : 16:9
    Частота кадров : 23,976 (24000/1001) кадра/сек
    Цветовое пространство : YUV
    Субдискретизация насыщенности : 4:2:0
    Битовая глубина : 8 бит
    Тип развёртки : Прогрессивная
    Метод сжатия : С потерями
    Бит/(Пиксели*Кадры) : 0.212
    Размер потока : 264 Мбайт (79%)
    Библиотека кодирования : XviD 73
    Аудио #1
    Идентификатор : 1
    Формат : AC-3
    Формат/Информация : Audio Coding 3
    Коммерческое название : Dolby Digital
    Идентификатор кодека : 2000
    Продолжительность : 25 м. 12 с.
    Вид битрейта : Постоянный
    Битрейт : 192 Кбит/сек
    Каналы : 2 канала
    ChannelLayout : L R
    Частота : 48,0 КГц
    Частота кадров : 31,250 кадров/сек (1536 SPF)
    Метод сжатия : С потерями
    Размер потока : 34,6 Мбайт (10%)
    Выравнивание : Разделение по промежуткам
    Продолжительность промежутка : 42 мс. (1,00 видеокадр)
    Время предзагрузки промежутка : 500 мс.
    Аудио #2
    Идентификатор : 2
    Формат : AC-3
    Формат/Информация : Audio Coding 3
    Коммерческое название : Dolby Digital
    Идентификатор кодека : 2000
    Продолжительность : 25 м. 12 с.
    Вид битрейта : Постоянный
    Битрейт : 192 Кбит/сек
    Каналы : 2 канала
    ChannelLayout : L R
    Частота : 48,0 КГц
    Частота кадров : 31,250 кадров/сек (1536 SPF)
    Метод сжатия : С потерями
    Размер потока : 34,6 Мбайт (10%)
    Выравнивание : Разделение по промежуткам
    Продолжительность промежутка : 42 мс. (1,00 видеокадр)
    Время предзагрузки промежутка : 500 мс.

    _________________
    Показать сообщения:    
    Главная  Аниме  Сериалы  Аниме Сериалы

    Текущее время: 26-Окт 09:16

    Часовой пояс: UTC + 5



    Вы не можете начинать темы
    Вы не можете отвечать на сообщения
    Вы не можете редактировать свои сообщения
    Вы не можете удалять свои сообщения
    Вы не можете голосовать в опросах
    Вы не можете прикреплять файлы к сообщениям
    Вы не можете скачивать файлы