Школа-тюрьма / Kangoku Gakuen: Prison School [TV-1] [12 из 12] (Мидзусима Цутому) [2015, Комедия, школа, этти, BDRip-HEVC 1080p] MVO (AniDUB) :: UZTOR.PW Лучший трекер в зоне TAS-IX!
 
Уважаемые гости сайта! Добро Пожаловать на наш торрент трекер,где Вы можете бесплатно скачать любой Софт,Фильмы,Музыку и многое другое! А так же постоянно ведется набор модераторов и релизеров. Зарегистрируйтесь сейчас, чтобы получить доступ ко всем функциям. После регистрации или входа на сайт вы сможете создавать темы, отвечать на сообщения и скачивать файлы.

Навигация по Торрент раздачам и Форум и Стол заказов и Группы



  Школа-тюрьма / Kangoku Gakuen: Prison School [TV-1] [12 из 12] (Мидзусима Цутому) [2015, Комедия, школа, этти, BDRip-HEVC 1080p] MVO (AniDUB)

Главная  Аниме  Сериалы  Аниме Сериалы (HD)
Статистика раздачи
Скачал: [ 2 ]
 
     
 
 
 
Автор Сообщение
  • Создавать темы 21-Июл-2020 17:31

    Школа-тюрьма / Kangoku Gakuen: Prison SchoolГод выхода: 2015
    Страна: Япония
    Студия: J.C. Staff
    Жанр: комедия, школа, этти
    Продолжительность: 00:24:40
    Перевод: Любительский многоголосый, закадровый (AniDUB)-Режиссер: Мидзусима Цутому-В ролях: Камия Хироси, Кониси Кацуюки, Судзумура Кэнъити, Окицу Кадзуюки, Намикава Дайсукэ, Охара Саяка, Ито Сидзука, Ханадзава Кана, Хасимото Тинами, Тайти Ё, Фудзивара Кэйдзи, Косимидзу Ами-О фильме: Частная академия Хатимицу, что расположилась в предместьях Токио - самая строгая женская школа в Японии. Вот только контингент местный – не капелла ангелов, на которых смотрит дева Мария, а скорее клубок змей, где официальному школьному Совету с президентом Кэйт активно противостоит подковерный «конклав» во главе с директорской дочкой Мари. Здесь не дарят в знак дружбы четки с распятием - эти девушки сами кого хочешь распнут!
    И вот ради оживления школьной рутины в старшие классы Хатимицу впервые в истории зачислили пятерых парней. Можете догадаться, с какой добротой и гостеприимством хозяйки школы приняли Киёси и компанию. Отныне для несчастных шаг в сторону – нарушение школьных правил, а прыжок на месте – извращение и провокация! Какая романтика, если для всех пятерых родным домом стала школьная тюрьма? Хотя, знаете… были бы понятия, а жить и в тюрьме можно-Качество: BDRip-HEVC 1080p
    Формат: MKV
    Видео: x265, 1920x1080, 1636 kbps, 23.976 fps
    Аудио (Rus(int)): ACC, 192 kbps, 48,0 KHz, 2 ch | [AniDub]
    Субтитры: Субтитры (Russian): ASS, встроенные | надписи--

    MediaInfo

    Общее
    Уникальный идентификатор : 142694576639618411496572674413878800538 (0x6B59F9CE5E7282D127FFA9D2E1D3709A)
    Полное имя : I:\Фильмы\Prison School\Prison School 01.mkv
    Формат : Matroska
    Версия формата : Version 4
    Размер файла : 335 Мбайт
    Продолжительность : 24 м. 39 с.
    Общий поток : 1898 Кбит/сек
    Название фильма : [Reaktor] Prison School - E01
    Дата кодирования : UTC 2018-02-23 09:37:52
    Программа кодирования : mkvmerge v20.0.0 ('I Am The Sun') 64-bit
    Библиотека кодирования : libebml v1.3.5 + libmatroska v1.4.8
    Attachments : BigNoodleTitling.ttf / Bodoni Bk BT Book.ttf / Bodoni SvtyTwo OS ITC TT Bold.TTF / Bolton.ttf / Book Antiqua Bold.TTF / Boom Tank.ttf / Brain Flower Euro.ttf / BrushType-SemiBold.ttf / Calibri Light.ttf / Cambria.ttc / Capture it.ttf / Cartoonist Kooky.ttf / Century Schoolbook.ttf / ChicChalk.otf / Collegiate.ttf / Compass Bold.ttf / Constantia Bold.ttf / COUTURE Bold.ttf / DHF Semangat 2012 Demo.ttf / DJB My Mood Ring Says Blah.ttf / DK Liquid Embrace.ttf / Edo SZ.ttf / Encode Sans Compressed.ttf / Encode Sans Condensed Bold.ttf / Eras Bold ITC.ttf / ExpresswayRg-Regular.ttf / Felt Tip Roman.ttf / FeltTipRoman.ttf / FSO incompetent apprentice.ttf / Gentium Book Basic Bold Italic.ttf / Gentium Book Basic Bold.ttf / Helvetica Neue LT Com 45 Light.ttf / Helvetica Neue LT Com 55 Roman.ttf / Helvetica Neue LT Com 67 Medium Condensed.ttf / Helvetica Neue LT Com 75 Bold.ttf / Helvetica Neue LT Com 85 Heavy.ttf / Helvetica Neue LT Com 87 Heavy Condensed.ttf / Helvetica World Bold.ttf / HelveticaLTStd-Blk.otf / HelveticaLTStd-Bold.otf / HelveticaLTStd-FractionBold.otf / HelveticaRoundedLTStd-Bd.otf / Janda Manatee Solid.ttf / LeviBrush.TTF / Mortal Kombat 5.ttf / Resurrection.TTF / Scotosaurus.ttf / Seven Monkey Fury BB.ttf / squeaky chalk sound.ttf / Times New Roman.ttf / tom script.ttf / Universal Serif.ttf / AA_amakara_sample.ttf / Aharoni Bold.ttf / Arial Black.ttf / Arial Bold.ttf / ArtificeSSK.ttf / Bebas.TTF / BellCentennialStd-BdListing.otf / BellGothicStd-Black.otf / 26746.ttf / jesaya free.ttf
    Видео
    Идентификатор : 1
    Формат : HEVC
    Формат/Информация : High Efficiency Video Coding
    Профиль формата : Main 10@L4@Main
    Идентификатор кодека : V_MPEGH/ISO/HEVC
    Продолжительность : 24 м. 39 с.
    Битрейт : 1636 Кбит/сек
    Ширина : 1920 пикселей
    Высота : 1080 пикселей
    Соотношение сторон : 16:9
    Режим частоты кадров : Постоянный
    Частота кадров : 23,976 (24000/1001) кадра/сек
    Цветовое пространство : YUV
    Субдискретизация насыщенности : 4:2:0
    Битовая глубина : 10 бит
    Бит/(Пиксели*Кадры) : 0.033
    Размер потока : 289 Мбайт (86%)
    Библиотека кодирования : x265 2.3:[Windows][GCC 5.3.1][64 bit] 10bit
    Настройки программы : cpuid=1173503 / frame-threads=2 / numa-pools=4 / wpp / no-pmode / no-pme / no-psnr / no-ssim / log-level=2 / input-csp=1 / input-res=1920x1080 / interlace=0 / total-frames=0 / level-idc=0 / high-tier=1 / uhd-bd=0 / ref=3 / no-allow-non-conformance / no-repeat-headers / annexb / no-aud / no-hrd / info / hash=0 / no-temporal-layers / open-gop / min-keyint=24 / keyint=240 / bframes=4 / b-adapt=0 / b-pyramid / bframe-bias=0 / rc-lookahead=15 / lookahead-slices=6 / scenecut=40 / no-intra-refresh / ctu=64 / min-cu-size=8 / no-rect / no-amp / max-tu-size=32 / tu-inter-depth=1 / tu-intra-depth=1 / limit-tu=0 / rdoq-level=0 / dynamic-rd=0.00 / signhide / no-tskip / nr-intra=0 / nr-inter=0 / no-constrained-intra / strong-intra-smoothing / max-merge=2 / limit-refs=3 / no-limit-modes / me=1 / subme=2 / merange=57 / temporal-mvp / weightp / no-weightb / no-analyze-src-pics / deblock=0:0 / sao / no-sao-non-deblock / rd=2 / no-early-skip / rskip / fast-intra / no-tskip-fast / no-cu-lossless / no-b-intra / rdpenalty=0 / psy-rd=2.00 / psy-rdoq=0.00 / no-rd-refine / analysis-mode=0 / no-lossless / cbqpoffs=0 / crqpoffs=0 / rc=crf / crf=20.0 / qcomp=0.60 / qpstep=4 / stats-write=0 / stats-read=0 / ipratio=1.40 / pbratio=1.30 / aq-mode=1 / aq-strength=1.00 / cutree / zone-count=0 / no-strict-cbr / qg-size=32 / no-rc-grain / qpmax=69 / qpmin=0 / sar=1 / overscan=0 / videoformat=5 / range=0 / colorprim=1 / transfer=1 / colormatrix=1 / chromaloc=0 / display-window=0 / max-cll=0,0 / min-luma=0 / max-luma=1023 / log2-max-poc-lsb=8 / vui-timing-info / vui-hrd-info / slices=1 / opt-qp-pps / opt-ref-list-length-pps / no-multi-pass-opt-rps / scenecut-bias=0.05 / no-opt-cu-delta-qp / no-aq-motion / no-hdr
    Язык : Japanese
    Default : Да
    Forced : Нет
    Цветовой диапазон : Limited
    Основные цвета : BT.709
    Характеристики трансфера : BT.709
    Коэффициенты матрицы : BT.709
    Аудио
    Идентификатор : 2
    Формат : AAC LC
    Формат/Информация : Advanced Audio Codec Low Complexity
    Идентификатор кодека : A_AAC-2
    Продолжительность : 24 м. 39 с.
    Битрейт : 192 Кбит/сек
    Каналы : 2 канала
    ChannelLayout : L R
    Частота : 48,0 КГц
    Частота кадров : 46,875 кадров/сек (1024 SPF)
    Метод сжатия : С потерями
    Задержка видео : -5 мс.
    Размер потока : 33,9 Мбайт (10%)
    Заголовок : AniDub
    Язык : Russian
    Default : Да
    Forced : Нет
    Текст
    Идентификатор : 3
    Формат : ASS
    Идентификатор кодека : S_TEXT/ASS
    Идентификатор кодека/Информация : Advanced Sub Station Alpha
    Продолжительность : 21 м. 56 с.
    Битрейт : 16 бит/сек
    ElementCount : 49
    Метод сжатия : Без потерь
    Размер потока : 2,63 Кбайт (0%)
    Заголовок : Надписи
    Язык : Russian
    Default : Да
    Forced : Нет
    Меню
    00:00:00.000 : :Introduction
    00:00:47.339 : :Opening
    00:02:17.012 : :Part A
    00:11:34.027 : :Part B
    00:22:59.962 : :Ending
    00:24:30.010 : :Preview

    _________________
    Показать сообщения:    
    Главная  Аниме  Сериалы  Аниме Сериалы (HD)

    Текущее время: 01-Ноя 05:34

    Часовой пояс: UTC + 5



    Вы не можете начинать темы
    Вы не можете отвечать на сообщения
    Вы не можете редактировать свои сообщения
    Вы не можете удалять свои сообщения
    Вы не можете голосовать в опросах
    Вы не можете прикреплять файлы к сообщениям
    Вы не можете скачивать файлы