Клинок, рассекающий демонов / Kimetsu no Yaiba [TV-1] [26 из 26] (Харуо Сотодзаки) [2019, Драма, история, мистика, приключения, сверхъестественное, сёнэн, фэнтези, BDRip-HEVC 1080p] DUB (Wakanim) :: UZTOR.PW Лучший трекер в зоне TAS-IX!
 
Уважаемые гости сайта! Добро Пожаловать на наш торрент трекер,где Вы можете бесплатно скачать любой Софт,Фильмы,Музыку и многое другое! А так же постоянно ведется набор модераторов и релизеров. Зарегистрируйтесь сейчас, чтобы получить доступ ко всем функциям. После регистрации или входа на сайт вы сможете создавать темы, отвечать на сообщения и скачивать файлы.

Навигация по Торрент раздачам и Форум и Стол заказов и Группы



  Клинок, рассекающий демонов / Kimetsu no Yaiba [TV-1] [26 из 26] (Харуо Сотодзаки) [2019, Драма, история, мистика, приключения, сверхъестественное, сёнэн, фэнтези, BDRip-HEVC 1080p] DUB (Wakanim)

Главная  Аниме  Сериалы  Аниме Сериалы (HD)
Статистика раздачи
Нет
 
     
 
 
 
Автор Сообщение
  • Создавать темы 21-Июл-2020 17:13

    Клинок, рассекающий демонов / Kimetsu no Yaiba--Год выхода: 2019
    Страна: Япония
    Студия: UFO Table
    Жанр: драма, история, мистика, приключения, сверхъестественное, сёнэн, фэнтези
    Продолжительность: 26 эп. по 24 мин.
    Перевод: Дубляж Wakanim-Режиссер: Харуо Сотодзаки-В ролях: Нацуки Ханаэ, Акари Кито, Ёсицугу Мацуока, Сакураи Такахиро, Хиро Симоно-Озвучили на Русском: Ислам Ганджаев & Владислав Токарев & Анна Мосолова & Иван Породнов & Ирина Евтягина & Александр Русаков & Татьяна Борзова & Полина Ртищева & Александр Скиданов & Сергей Евтягин & Анастасия Портная-О фильме: Действие происходит в эпоху Тайсё. Ещё с древних времён ходят слухи о том, что в лесу обитают человекоподобные демоны, которые питаются людьми и ходят по ночам, ища новую жертву. Но... это же просто легенда, ведь так?..
    Тандзиро Камадо — старший сын в семье, потерявший своего отца и взявший на себя заботу о своих родных. Однажды он уходит в соседний город, чтобы продать древесный уголь. Вернувшись утром, парень обнаруживает перед собой страшную картину: вся родня была зверски убита, а единственной выжившей является Нэдзуко — обращённая в демона, но пока не потерявшая всю человечность младшая сестра.
    С этого момента для Тандзиро и Нэдзуко начинается долгое и опасное путешествие, в котором мальчик намерен разыскать убийцу и узнать способ исцеления для своей сестры. Но в состоянии ли дети преодолеть все трудности и вернуться домой?-Качество: BDRip-HEVC 1080p
    Видео: HEVC, 1920x1080, 9744 Kbps, 10 bit
    Аудио JAP: FLAC, 48.0 kHz, 2.0 ch, 1438 Kbps
    Аудио RUS(ext): AAC, 48.0 kHz, 2.0 ch, 192 Kbps
    Субтитры RUS(ext): Внешние | Надписи + Полные [YakuSub Studio]--

    MediaInfo

    Общее
    Уникальный идентификатор : 83904735204623370312416572021711926941 (0x3F1F76D5DA83F1FF8993D0DD25A1769D)
    Полное имя : I:\Фильмы\Kimetsu no Yaiba [x265-10Bit Ver.]\[Moozzi2] Kimetsu no Yaiba - 01 (BD 1920x1080 x.265-10Bit FLAC).mkv
    Формат : Matroska
    Версия формата : Version 4
    Размер файла : 1,85 Гбайт
    Продолжительность : 23 м. 41 с.
    Режим общего битрейта : Переменный
    Общий поток : 11,2 Мбит/сек
    Дата кодирования : UTC 2020-07-11 17:35:16
    Программа кодирования : mkvmerge v46.0.0 ('No Deeper Escape') 64-bit
    Библиотека кодирования : libebml v1.3.10 + libmatroska v1.5.2
    Видео
    Идентификатор : 1
    Формат : HEVC
    Формат/Информация : High Efficiency Video Coding
    Профиль формата : Main 10@L4@High
    Идентификатор кодека : V_MPEGH/ISO/HEVC
    Продолжительность : 23 м. 41 с.
    Битрейт : 9744 Кбит/сек
    Ширина : 1920 пикселей
    Высота : 1080 пикселей
    Соотношение сторон : 16:9
    Режим частоты кадров : Постоянный
    Частота кадров : 23,976 (24000/1001) кадра/сек
    Цветовое пространство : YUV
    Субдискретизация насыщенности : 4:2:0
    Битовая глубина : 10 бит
    Бит/(Пиксели*Кадры) : 0.196
    Размер потока : 1,61 Гбайт (87%)
    Библиотека кодирования : x265 3.2+5-354901970679:[Windows][GCC 9.2.0][64 bit] 10bit
    Настройки программы : cpuid=1111039 / frame-threads=5 / numa-pools=32,0 / wpp / no-pmode / no-pme / no-psnr / no-ssim / log-level=2 / input-csp=1 / input-res=1920x1080 / interlace=0 / total-frames=31 / level-idc=0 / high-tier=1 / uhd-bd=0 / ref=4 / no-allow-non-conformance / no-repeat-headers / annexb / no-aud / no-hrd / info / hash=0 / no-temporal-layers / no-open-gop / min-keyint=50 / keyint=360 / gop-lookahead=0 / bframes=8 / b-adapt=2 / b-pyramid / bframe-bias=0 / rc-lookahead=80 / lookahead-slices=4 / scenecut=40 / radl=0 / no-splice / no-intra-refresh / ctu=32 / min-cu-size=8 / no-rect / no-amp / max-tu-size=32 / tu-inter-depth=2 / tu-intra-depth=2 / limit-tu=0 / rdoq-level=2 / dynamic-rd=0.00 / no-ssim-rd / signhide / no-tskip / nr-intra=0 / nr-inter=0 / no-constrained-intra / no-strong-intra-smoothing / max-merge=3 / limit-refs=2 / limit-modes / me=3 / subme=4 / merange=57 / temporal-mvp / no-frame-dup / no-hme / weightp / weightb / no-analyze-src-pics / deblock=0:0 / no-sao / no-sao-non-deblock / rd=5 / selective-sao=0 / no-early-skip / rskip / no-fast-intra / no-tskip-fast / no-cu-lossless / no-b-intra / no-splitrd-skip / rdpenalty=0 / psy-rd=1.50 / psy-rdoq=1.00 / no-rd-refine / no-lossless / cbqpoffs=-2 / crqpoffs=-2 / rc=crf / crf=15.0 / qcomp=0.75 / qpstep=4 / stats-write=0 / stats-read=0 / vbv-maxrate=30000 / vbv-bufsize=40000 / vbv-init=0.9 / crf-max=0.0 / crf-min=0.0 / ipratio=1.40 / pbratio=1.30 / aq-mode=3 / aq-strength=0.80 / no-cutree / zone-count=0 / no-strict-cbr / qg-size=32 / no-rc-grain / qpmax=69 / qpmin=0 / no-const-vbv / sar=0 / overscan=0 / videoformat=5 / range=0 / colorprim=1 / transfer=1 / colormatrix=1 / chromaloc=0 / display-window=0 / cll=0,0 / min-luma=0 / max-luma=1023 / log2-max-poc-lsb=8 / vui-timing-info / vui-hrd-info / slices=1 / no-opt-qp-pps / no-opt-ref-list-length-pps / no-multi-pass-opt-rps / scenecut-bias=0.05 / no-opt-cu-delta-qp / no-aq-motion / no-hdr / no-hdr-opt / no-dhdr10-opt / no-idr-recovery-sei / analysis-reuse-level=5 / scale-factor=0 / refine-intra=0 / refine-inter=0 / refine-mv=1 / refine-ctu-distortion=0 / no-limit-sao / ctu-info=0 / no-lowpass-dct / refine-analysis-type=0 / copy-pic=1 / max-ausize-factor=1.0 / no-dynamic-refine / no-single-sei / no-hevc-aq / no-svt / no-field / qp-adaptation-range=1.00
    Язык : Japanese
    Default : Да
    Forced : Нет
    Цветовой диапазон : Limited
    Основные цвета : BT.709
    Характеристики трансфера : BT.709
    Коэффициенты матрицы : BT.709
    Аудио
    Идентификатор : 2
    Формат : FLAC
    Формат/Информация : Free Lossless Audio Codec
    Идентификатор кодека : A_FLAC
    Продолжительность : 23 м. 41 с.
    Вид битрейта : Переменный
    Битрейт : 1438 Кбит/сек
    Каналы : 2 канала
    ChannelLayout : L R
    Частота : 48,0 КГц
    Частота кадров : 11,719 кадров/сек (4096 SPF)
    Битовая глубина : 24 бит
    Метод сжатия : Без потерь
    Размер потока : 244 Мбайт (13%)
    Заголовок : Main Audio
    Библиотека кодирования : libFLAC 1.3.2 (UTC 2017-01-01)
    Язык : Japanese
    Default : Да
    Forced : Нет

    AudioInfo RUS

    AudioInfo
    Общее
    Уникальный идентификатор : 328089102673979597588531670615686047537 (0xF6D3A9A874EBA2345884D1DC694AE731)
    Полное имя : I:\Фильмы\Kimetsu no Yaiba [x265-10Bit Ver.]\RUS Sound\Wakanim\[Moozzi2] Kimetsu no Yaiba - 01 (BD 1920x1080 x.265-10Bit FLAC).mka
    Формат : Matroska
    Версия формата : Version 4
    Размер файла : 32,3 Мбайт
    Продолжительность : 23 м. 39 с.
    Общий поток : 191 Кбит/сек
    Дата кодирования : UTC 2020-05-22 13:39:02
    Программа кодирования : mkvmerge v46.0.0 ('No Deeper Escape') 64-bit
    Библиотека кодирования : libebml v1.3.10 + libmatroska v1.5.2
    Аудио
    Идентификатор : 1
    Формат : AAC LC
    Формат/Информация : Advanced Audio Codec Low Complexity
    Идентификатор кодека : A_AAC-2
    Продолжительность : 23 м. 39 с.
    Битрейт : 192 Кбит/сек
    Каналы : 2 канала
    ChannelLayout : L R
    Частота : 48,0 КГц
    Частота кадров : 46,875 кадров/сек (1024 SPF)
    Метод сжатия : С потерями
    Размер потока : 32,1 Мбайт (99%)
    Язык : Russian
    Default : Да
    Forced : Нет

    _________________
    Показать сообщения:    
    Главная  Аниме  Сериалы  Аниме Сериалы (HD)

    Текущее время: 31-Окт 00:39

    Часовой пояс: UTC + 5



    Вы не можете начинать темы
    Вы не можете отвечать на сообщения
    Вы не можете редактировать свои сообщения
    Вы не можете удалять свои сообщения
    Вы не можете голосовать в опросах
    Вы не можете прикреплять файлы к сообщениям
    Вы не можете скачивать файлы