Доктор Стоун / Dr. Stone [TV-1] [24 из 24] (Риитиро Инагаки) [2019, Приключения, фантастика, боевик, сёнэн, WEBRip-HEVC 1080p] MVO (AniLibria) :: UZTOR.PW Лучший трекер в зоне TAS-IX!
 
Уважаемые гости сайта! Добро Пожаловать на наш торрент трекер,где Вы можете бесплатно скачать любой Софт,Фильмы,Музыку и многое другое! А так же постоянно ведется набор модераторов и релизеров. Зарегистрируйтесь сейчас, чтобы получить доступ ко всем функциям. После регистрации или входа на сайт вы сможете создавать темы, отвечать на сообщения и скачивать файлы.

Навигация по Торрент раздачам и Форум и Стол заказов и Группы



  Доктор Стоун / Dr. Stone [TV-1] [24 из 24] (Риитиро Инагаки) [2019, Приключения, фантастика, боевик, сёнэн, WEBRip-HEVC 1080p] MVO (AniLibria)

Главная  Аниме  Сериалы  Аниме Сериалы (HD)
Статистика раздачи
Нет
 
     
 
 
 
Автор Сообщение
  • Создавать темы 21-Июл-2020 00:54

    Доктор Стоун / Dr. Stone--Год выпуска: 2019
    Выпущено: Япония, Tokyo Movie Shinsha Co. Ltd.
    Жанр: Приключения, фантастика, боевик, сёнэн,
    Продолжительность: 24 х ~ 00:25:00
    Перевод: Любительский многоголосый (AniLibria)-Режиссер: Риитиро Инагаки-В ролях: Юсукэ Кобаяси, Макото Фурукава, Кана Итиносэ, Юйти Накамура, Манами Нумакура, Гэн Сато, Томоаки Маэно, Аюму Мурасэ, Рэйна Уэда, Карин Такахаси, Кэнго Каваниси, Мугихито-О фильме: В начале XXI века в результате таинственной катастрофы всё человеческое население Земли единовременно окаменело. И лишь по прошествии тысячелетий в результате невероятного сочетания непонятных условий к жизни вернулся молодой гений Сэнку. Ну а будучи человеком с научным складом ума, Сэнку поставил перед собой три цели: выяснить, что приводит к снятию окаменения, возродить цивилизацию и выжить в мире, не знавшем человека более трёх тысяч лет. Альтернативное название: "Доктор Камень"-Качество: WEBRip-HEVC 1080p
    Видео: HEVC, ~ 1400 Кбит/с, 1920x1080
    Аудио: Русский (AС3, 2 ch, 192 Кбит/с)
    Аудио: Японский (AС3, 2 ch, 192 Кбит/с)
    Субтитры: Русские (Софтсаб)--

    MediaInfo

    Общее
    Уникальный идентификатор : 91987874723373210424968469190734430153 (0x45343861FA6B05FC1FCA65B23382BFC9)
    Полное имя : I:\Фильмы\Dr. Stone - AniLibria.TV [WEBRip 1080p HEVC]\Dr_Stone_[01]_[AniLibria_TV]_[WEBRip_1080p_HEVC].mkv
    Формат : Matroska
    Версия формата : Version 4
    Размер файла : 290 Мбайт
    Продолжительность : 24 м. 6 с.
    Общий поток : 1682 Кбит/сек
    Дата кодирования : UTC 2019-12-18 09:48:21
    Программа кодирования : mkvmerge v41.0.0 ('Smarra') 64-bit
    Библиотека кодирования : libebml v1.3.9 + libmatroska v1.5.2
    Attachments : Maika_0.ttf / open-sans-semibold_[allfont.ru].ttf / Stylo Bold.TTF / 8804.otf / Aero_Matics_Display_Regular.ttf / BIP.ttf / OpenSans-Semibold.ttf
    Видео
    Идентификатор : 1
    Формат : HEVC
    Формат/Информация : High Efficiency Video Coding
    Профиль формата : Main 10@L5.1@High
    Идентификатор кодека : V_MPEGH/ISO/HEVC
    Продолжительность : 24 м. 6 с.
    Битрейт : 1354 Кбит/сек
    Ширина : 1920 пикселей
    Высота : 1080 пикселей
    Соотношение сторон : 16:9
    Режим частоты кадров : Постоянный
    Частота кадров : 23,976 (24000/1001) кадра/сек
    Цветовое пространство : YUV
    Субдискретизация насыщенности : 4:2:0
    Битовая глубина : 10 бит
    Бит/(Пиксели*Кадры) : 0.027
    Размер потока : 233 Мбайт (81%)
    Заголовок : Original [GeeKaZ0iD]
    Библиотека кодирования : x265 3.2+15-04db2bfee5d6:[Windows][GCC 9.2.1][64 bit] 10bit
    Настройки программы : cpuid=1111039 / frame-threads=3 / numa-pools=8 / wpp / no-pmode / no-pme / no-psnr / no-ssim / log-level=2 / input-csp=1 / input-res=1920x1080 / interlace=0 / total-frames=0 / level-idc=51 / high-tier=1 / uhd-bd=0 / ref=6 / no-allow-non-conformance / no-repeat-headers / annexb / no-aud / no-hrd / info / hash=0 / no-temporal-layers / open-gop / min-keyint=23 / keyint=250 / gop-lookahead=0 / bframes=4 / b-adapt=2 / b-pyramid / bframe-bias=0 / rc-lookahead=20 / lookahead-slices=6 / scenecut=40 / radl=0 / no-splice / no-intra-refresh / ctu=64 / min-cu-size=8 / no-rect / no-amp / max-tu-size=32 / tu-inter-depth=1 / tu-intra-depth=1 / limit-tu=0 / rdoq-level=0 / dynamic-rd=0.00 / no-ssim-rd / signhide / no-tskip / nr-intra=0 / nr-inter=0 / no-constrained-intra / strong-intra-smoothing / max-merge=3 / limit-refs=1 / no-limit-modes / me=1 / subme=2 / merange=57 / temporal-mvp / no-frame-dup / no-hme / weightp / no-weightb / no-analyze-src-pics / deblock=0:0 / sao / no-sao-non-deblock / rd=3 / selective-sao=4 / early-skip / rskip / no-fast-intra / no-tskip-fast / no-cu-lossless / b-intra / no-splitrd-skip / rdpenalty=0 / psy-rd=2.00 / psy-rdoq=0.00 / no-rd-refine / no-lossless / cbqpoffs=0 / crqpoffs=0 / rc=crf / crf=23.0 / qcomp=0.60 / qpstep=4 / stats-write=0 / stats-read=0 / vbv-maxrate=160000 / vbv-bufsize=160000 / vbv-init=0.9 / crf-max=0.0 / crf-min=0.0 / ipratio=1.40 / pbratio=1.30 / aq-mode=2 / aq-strength=1.00 / cutree / zone-count=0 / no-strict-cbr / qg-size=32 / no-rc-grain / qpmax=69 / qpmin=0 / no-const-vbv / sar=1 / overscan=0 / videoformat=5 / range=0 / colorprim=2 / transfer=2 / colormatrix=2 / chromaloc=0 / display-window=0 / cll=0,0 / min-luma=0 / max-luma=1023 / log2-max-poc-lsb=8 / vui-timing-info / vui-hrd-info / slices=1 / no-opt-qp-pps / no-opt-ref-list-length-pps / no-multi-pass-opt-rps / scenecut-bias=0.05 / no-opt-cu-delta-qp / no-aq-motion / no-hdr / no-hdr-opt / no-dhdr10-opt / no-idr-recovery-sei / analysis-reuse-level=5 / scale-factor=0 / refine-intra=0 / refine-inter=0 / refine-mv=1 / refine-ctu-distortion=0 / no-limit-sao / ctu-info=0 / no-lowpass-dct / refine-analysis-type=0 / copy-pic=1 / max-ausize-factor=1.0 / no-dynamic-refine / no-single-sei / no-hevc-aq / no-svt / no-field / qp-adaptation-range=1.00 / no-scenecut-aware-qp
    Язык : Japanese
    Default : Да
    Forced : Да
    Цветовой диапазон : Limited
    Аудио #1
    Идентификатор : 2
    Формат : AAC LC
    Формат/Информация : Advanced Audio Codec Low Complexity
    Идентификатор кодека : A_AAC-2
    Продолжительность : 24 м. 6 с.
    Битрейт : 192 Кбит/сек
    Каналы : 2 канала
    ChannelLayout : L R
    Частота : 48,0 КГц
    Частота кадров : 46,875 кадров/сек (1024 SPF)
    Метод сжатия : С потерями
    Размер потока : 33,1 Мбайт (11%)
    Заголовок : AniLibria.TV
    Язык : Russian
    Default : Да
    Forced : Да
    Аудио #2
    Идентификатор : 3
    Формат : AAC LC
    Формат/Информация : Advanced Audio Codec Low Complexity
    Идентификатор кодека : A_AAC-2
    Продолжительность : 24 м. 6 с.
    Битрейт : 128 Кбит/сек
    Каналы : 2 канала
    ChannelLayout : L R
    Частота : 44,1 КГц
    Частота кадров : 43,066 кадра/сек (1024 SPF)
    Метод сжатия : С потерями
    Размер потока : 22,1 Мбайт (8%)
    Заголовок : Original
    Язык : Japanese
    Default : Нет
    Forced : Нет
    Текст #1
    Идентификатор : 4
    Формат : ASS
    Идентификатор кодека : S_TEXT/ASS
    Идентификатор кодека/Информация : Advanced Sub Station Alpha
    Продолжительность : 17 м. 7 с.
    Битрейт : 16 бит/сек
    ElementCount : 13
    Метод сжатия : Без потерь
    Размер потока : 2,11 Кбайт (0%)
    Заголовок : Надписи
    Язык : Russian
    Default : Да
    Forced : Да
    Текст #2
    Идентификатор : 5
    Формат : ASS
    Идентификатор кодека : S_TEXT/ASS
    Идентификатор кодека/Информация : Advanced Sub Station Alpha
    Продолжительность : 23 м. 58 с.
    Битрейт : 135 бит/сек
    ElementCount : 312
    Метод сжатия : Без потерь
    Размер потока : 23,8 Кбайт (0%)
    Заголовок : Полные
    Язык : Russian
    Default : Нет
    Forced : Нет

    _________________
    Показать сообщения:    
    Главная  Аниме  Сериалы  Аниме Сериалы (HD)

    Текущее время: 01-Ноя 05:42

    Часовой пояс: UTC + 5



    Вы не можете начинать темы
    Вы не можете отвечать на сообщения
    Вы не можете редактировать свои сообщения
    Вы не можете удалять свои сообщения
    Вы не можете голосовать в опросах
    Вы не можете прикреплять файлы к сообщениям
    Вы не можете скачивать файлы