Повелитель: Темный воитель / Overlord: The Dark Hero (Ито Наоюки) (Фильм) [2017, Приключения, фэнтези, BDRip-HEVC 1080p] MVO (Akari Group) :: UZTOR.PW Лучший трекер в зоне TAS-IX!
 
Уважаемые гости сайта! Добро Пожаловать на наш торрент трекер,где Вы можете бесплатно скачать любой Софт,Фильмы,Музыку и многое другое! А так же постоянно ведется набор модераторов и релизеров. Зарегистрируйтесь сейчас, чтобы получить доступ ко всем функциям. После регистрации или входа на сайт вы сможете создавать темы, отвечать на сообщения и скачивать файлы.

Навигация по Торрент раздачам и Форум и Стол заказов и Группы



 Повелитель: Темный воитель / Overlord: The Dark Hero (Ито Наоюки) (Фильм) [2017, Приключения, фэнтези, BDRip-HEVC 1080p] MVO (Akari Group)

Главная  Аниме  Манга и OVA  Артбуки и Полнометражки
Статистика раздачи
Нет
 
     
 
 
 
Автор Сообщение
  • Создавать темы 15-Июн-2020 01:28

    Повелитель: Темный воитель / Overlord: The Dark Hero-- Год выхода: 2017
    Страна: Япония
    Студия: Madhouse Studio
    Жанр: приключения, фэнтези
    Продолжительность: 01:33:58
    Перевод: Любительский многоголосый, закадровый (Akari Group)-Режиссер: Ито Наоюки-В ролях: Хино Сатоси, Хара Юми, Уэсака Сумирэ, Като Эмири, Утияма Юми, Като Масаюки, Миякэ Кэнта, Тиба Сигэру-О фильме: Существует одна очень известная и легендарная игра под названием Иггдрасиль, но её неожиданно закрывают. Был некий игрок, который просто мечтал быть в этой игре немного дольше, у него был персонаж по имени Момонга, он решил, что останется в этой игре, пока полностью не отключат сервера. Момонга был личем, а так же главным в одной самой известной гильдии, он был представителем темной стороны. И в момент отключения он собрал всех, кто играл с ним, сел на трон и ждал неизбежного. Но тут случилось очень неожиданное, оказывается, игра не была закрыта, игра продолжалась, а Момонга стал скелетом, могущественным волшебником. У неигровых персонажей начали проявлять эмоции. Теперь он будет без помощи друзей, даже без информации о том, что сейчас творится в мире, у него сейчас одна цель, завоевать полностью этот мир, ведь он думал, что только так можно найти с него выход. Кстати личность игрока перешла к персонажу, вот что самое удивительное.-Качество: BDRip-HEVC 1080p
    Формат: MKV
    Видео: HEVC/x265, 1920x1080, 1208 kbps, 23.976 fps
    Аудио (Rus(int)): AC-3, 192 kbps, 48,0 KHz, 2 ch | [Akari Group]
    Аудио (Japanese): AC-3, 192 kbps, 48,0 KHz, 2 ch | [Original]
    Субтитры: русские (встроенные полный перевод, ASS)--

    MI

    General
    Уникальный идентификатор : 132935389615050319485826520988671184877 (0x64026CBC9A28B79485A933D65CFA8FED)
    Полное имя : D:\Films\ANIME\Overlord Movies\02.Overlord. The Dark Hero.mkv
    Формат : Matroska
    Версия формата : Version 4
    Размер файла : 1 020 MiB
    Продолжительность : 1 h 33 min
    Общий поток : 1 517 kb/s
    Дата кодирования : UTC 2020-06-13 04:17:50
    Программа кодирования : mkvmerge v46.0.0 ('No Deeper Escape') 64-bit
    Библиотека кодирования : libebml v1.3.10 + libmatroska v1.5.2
    Video
    Идентификатор : 1
    Формат : HEVC
    Формат/Информация : High Efficiency Video Coding
    Профиль формата : Main 10@L5@Main
    Идентификатор кодека : V_MPEGH/ISO/HEVC
    Продолжительность : 1 h 33 min
    Битрейт : 1 131 kb/s
    Ширина : 1 920 pixels
    Высота : 1 080 pixels
    Соотношение сторон : 16:9
    Режим частоты кадров : Constant
    Частота кадров : 23.976 (24000/1001) FPS
    Цветовое пространство : YUV
    Субдискретизация насыщенности : 4:2:0
    Битовая глубина : 10 bits
    Бит/(Пиксели*Кадры) : 0.023
    Размер потока : 760 MiB (75%)
    Заголовок : [Judas] x265 10b
    Библиотека кодирования : x265 3.2.1+1-b5c86a64bbbe:[Windows][GCC 8.3.0][64 bit] 10bit
    Настройки программы : cpuid=1111039 / frame-threads=3 / numa-pools=8 / wpp / no-pmode / no-pme / no-psnr / no-ssim / log-level=2 / input-csp=1 / input-res=1920x1080 / interlace=0 / total-frames=0 / level-idc=0 / high-tier=1 / uhd-bd=0 / ref=6 / no-allow-non-conformance / no-repeat-headers / annexb / no-aud / no-hrd / info / hash=0 / no-temporal-layers / open-gop / min-keyint=24 / keyint=240 / gop-lookahead=0 / bframes=8 / b-adapt=2 / b-pyramid / bframe-bias=0 / rc-lookahead=100 / lookahead-slices=4 / scenecut=40 / radl=0 / no-splice / no-intra-refresh / ctu=64 / min-cu-size=8 / rect / no-amp / max-tu-size=32 / tu-inter-depth=4 / tu-intra-depth=4 / limit-tu=0 / rdoq-level=2 / dynamic-rd=0.00 / no-ssim-rd / signhide / no-tskip / nr-intra=0 / nr-inter=0 / no-constrained-intra / strong-intra-smoothing / max-merge=3 / limit-refs=3 / limit-modes / me=3 / subme=3 / merange=57 / temporal-mvp / no-hme / weightp / no-weightb / no-analyze-src-pics / deblock=0:0 / sao / no-sao-non-deblock / rd=4 / selective-sao=4 / no-early-skip / rskip / no-fast-intra / no-tskip-fast / no-cu-lossless / no-b-intra / no-splitrd-skip / rdpenalty=0 / psy-rd=1.00 / psy-rdoq=1.00 / no-rd-refine / no-lossless / cbqpoffs=0 / crqpoffs=0 / rc=crf / crf=20.0 / qcomp=0.65 / qpstep=4 / stats-write=0 / stats-read=0 / ipratio=1.40 / pbratio=1.30 / aq-mode=3 / aq-strength=0.75 / cutree / zone-count=0 / no-strict-cbr / qg-size=32 / no-rc-grain / qpmax=69 / qpmin=0 / no-const-vbv / sar=1 / overscan=0 / videoformat=5 / range=0 / colorprim=1 / transfer=1 / colormatrix=1 / chromaloc=0 / display-window=0 / cll=0,0 / min-luma=0 / max-luma=1023 / log2-max-poc-lsb=8 / vui-timing-info / vui-hrd-info / slices=1 / no-opt-qp-pps / no-opt-ref-list-length-pps / no-multi-pass-opt-rps / scenecut-bias=0.05 / no-opt-cu-delta-qp / no-aq-motion / no-hdr / no-hdr-opt / no-dhdr10-opt / no-idr-recovery-sei / analysis-reuse-level=5 / scale-factor=0 / refine-intra=0 / refine-inter=0 / refine-mv=1 / refine-ctu-distortion=0 / no-limit-sao / ctu-info=0 / no-lowpass-dct / refine-analysis-type=0 / copy-pic=1 / max-ausize-factor=1.0 / no-dynamic-refine / no-single-sei / no-hevc-aq / no-svt / no-field / qp-adaptation-range=1.00
    Язык : Japanese
    Default : Yes
    Forced : No
    Цветовой диапазон : Limited
    Основные цвета : BT.709
    Характеристики трансфера : BT.709
    Коэффициенты матрицы : BT.709
    Audio #1
    Идентификатор : 2
    Формат : AC-3
    Формат/Информация : Audio Coding 3
    Коммерческое название : Dolby Digital
    Идентификатор кодека : A_AC3
    Продолжительность : 1 h 33 min
    Вид битрейта : Constant
    Битрейт : 192 kb/s
    Каналы : 2 channels
    Channel layout : L R
    Частота : 48.0 kHz
    Частота кадров : 31.250 FPS (1536 SPF)
    Метод сжатия : Lossy
    Задержка видео : -7 ms
    Размер потока : 129 MiB (13%)
    Заголовок : / Akari Group
    Язык : Russian
    Service kind : Complete Main
    Default : Yes
    Forced : No
    Audio #2
    Идентификатор : 3
    Формат : AC-3
    Формат/Информация : Audio Coding 3
    Коммерческое название : Dolby Digital
    Идентификатор кодека : A_AC3
    Продолжительность : 1 h 33 min
    Вид битрейта : Constant
    Битрейт : 192 kb/s
    Каналы : 2 channels
    Channel layout : L R
    Частота : 48.0 kHz
    Частота кадров : 31.250 FPS (1536 SPF)
    Метод сжатия : Lossy
    Задержка видео : -7 ms
    Размер потока : 129 MiB (13%)
    Заголовок : Original
    Язык : Japanese
    Service kind : Complete Main
    Default : No
    Forced : No
    Text #1
    Идентификатор : 4
    Формат : ASS
    Идентификатор кодека : S_TEXT/ASS
    Идентификатор кодека/Информация : Advanced Sub Station Alpha
    Продолжительность : 1 h 29 min
    Битрейт : 1 b/s
    Count of elements : 4
    Метод сжатия : Lossless
    Размер потока : 719 Bytes (0%)
    Заголовок : Надписи
    Язык : Russian
    Default : Yes
    Forced : No
    Text #2
    Идентификатор : 5
    Формат : ASS
    Идентификатор кодека : S_TEXT/ASS
    Идентификатор кодека/Информация : Advanced Sub Station Alpha
    Продолжительность : 1 h 30 min
    Битрейт : 158 b/s
    Count of elements : 1282
    Метод сжатия : Lossless
    Размер потока : 105 KiB (0%)
    Заголовок : Полные субтитры
    Язык : Russian
    Default : No
    Forced : No
    Menu
    00:00:00.000 : :Chapter 1
    00:09:25.231 : :Chapter 2
    00:19:07.480 : :Chapter 3
    00:28:20.699 : :Chapter 4
    00:36:09.376 : :Chapter 5
    00:41:50.341 : :Chapter 6
    00:52:58.217 : :Chapter 7
    01:08:00.201 : :Chapter 8
    01:12:19.085 : :Chapter 9
    01:22:55.012 : :Chapter 10
    01:30:17.162 : :Chapter 11

    _________________


    Последний раз редактировалось: -InVoKeR- (2020-07-02 00:08), всего редактировалось 1 раз
    Показать сообщения:    
    Главная  Аниме  Манга и OVA  Артбуки и Полнометражки

    Текущее время: 24-Ноя 14:04

    Часовой пояс: UTC + 5



    Вы не можете начинать темы
    Вы не можете отвечать на сообщения
    Вы не можете редактировать свои сообщения
    Вы не можете удалять свои сообщения
    Вы не можете голосовать в опросах
    Вы не можете прикреплять файлы к сообщениям
    Вы не можете скачивать файлы