Uddaburon Yigitlar 3 / Плохие парни навсегда (Adil El Arbi, Bilall Fallah) [2020, Jangari, Triller, Komediya, Jinoyat, WEB-Rip 1080p HEVC] O'zbek Tilida. :: UZTOR.PW Лучший трекер в зоне TAS-IX!
 
Уважаемые гости сайта! Добро Пожаловать на наш торрент трекер,где Вы можете бесплатно скачать любой Софт,Фильмы,Музыку и многое другое! А так же постоянно ведется набор модераторов и релизеров. Зарегистрируйтесь сейчас, чтобы получить доступ ко всем функциям. После регистрации или входа на сайт вы сможете создавать темы, отвечать на сообщения и скачивать файлы.

Навигация по Торрент раздачам и Форум и Стол заказов и Группы



 Uddaburon Yigitlar 3 / Плохие парни навсегда (Adil El Arbi, Bilall Fallah) [2020, Jangari, Triller, Komediya, Jinoyat, WEB-Rip 1080p HEVC] O'zbek Tilida.

Главная  Кинофильмы  Кинофильмы (HEVC)
Статистика раздачи
Нет
 
     
 
 
Автор Сообщение
  • N.U.R.I.K.B.E.K ®
  • Не в сети
  • Автор темы

  • 5058
  • Пол: Мужской

  • Стаж: 1 год 6 месяцев

  • Сообщений: 3

  • Не указан Не указан

  • Провайдер: UzOnline UzOnline

  • Карма: 50


  • Наличие запрета:

  • Награды: Нет
  • Создавать темы 13-Май-2020 00:57


    --Uddaburon Yigitlar 3 | Плохие парни навсегда--Год выпуска: 2020
    Страна: AQSH, Meksika.
    Жанр: Jangari, Triller, Komediya, Jinoyat
    Продолжительность: 02:03:55
    Перевод: Профессиональный MY5 O'zbek Tilida--Режиссер: Adil El Arbi, Bilall Fallah--В ролях: Uill Smit, Martin Lorens, Aleksandr Ludvig, Vanessa Ann Xudjens, Maykl Bay, Jo Pantoliano, Paola Nunez, Charlz Melton, Kate del Kastilo, Nikki Jeym, Yakob Skipio--Описание: Detektivlar Mayk Louri va Markus Burnett yana ish boshlashdi! To'g'ri, ular barcha operatsiyalardan chetlatilgan, ammo umidsiz do'stlar biron narsani to'xtatib qo'yganmi? Oxir oqibat, bu safar kimdir Mayk uchun ovni ochadi. Shunday qilib, yigitlar barchasini oxiriga etkazishlari kerak!--Качество видео: WEB-Rip 1080p
    Формат видео: MKV
    Видео кодек: H.265--Видео: HEVC 1920x808 23.976fps 2 270 kb/s
    Аудио: MP3 48000Hz stereo 128kbps O'zbek Tili--

    MediaInfo

    General
    Format : Matroska
    Format version : Version 4 / Version 2
    File size : 2.08 GiB
    Duration : 2 h 3 min
    Overall bit rate : 2 399 kb/s
    Movie name : PSArips.com | Bad.Boys.for.Life.2020.1080p.WEBRip.6CH.x265.HEVC-PSA
    Encoded date : UTC 2020-04-05 13:10:50
    Writing application : mkvmerge v15.0.0 ('Duel with the Devil') 64-bit
    Writing library : libebml v1.3.5 + libmatroska v1.4.5
    Video
    ID : 1
    Format : HEVC
    Format/Info : High Efficiency Video Coding
    Format profile : Main@L4@Main
    Codec ID : V_MPEGH/ISO/HEVC
    Duration : 2 h 3 min
    Bit rate : 2 270 kb/s
    Width : 1 920 pixels
    Height : 808 pixels
    Display aspect ratio : 2.40:1
    Frame rate mode : Constant
    Frame rate : 23.976 (24000/1001) FPS
    Color space : YUV
    Chroma subsampling : 4:2:0
    Bit depth : 8 bits
    Bits/(Pixel*Frame) : 0.061
    Stream size : 1.96 GiB (95%)
    Default : Yes
    Forced : No
    Color range : Limited
    Color primaries : BT.709
    Transfer characteristics : BT.709
    Matrix coefficients : BT.709
    Audio
    ID : 2
    Format : MPEG Audio
    Format version : Version 1
    Format profile : Layer 3
    Mode : Joint stereo
    Mode extension : MS Stereo
    Codec ID : A_MPEG/L3
    Codec ID/Hint : MP3
    Duration : 2 h 3 min
    Bit rate mode : Constant
    Bit rate : 128 kb/s
    Channel(s) : 2 channels
    Sampling rate : 48.0 kHz
    Frame rate : 41.667 FPS (1152 SPF)
    Compression mode : Lossy
    Stream size : 113 MiB (5%)
    Title : O'zbek Tili
    Writing library : LAME3.99.5
    Language : Uzbek
    Default : Yes
    Forced : Yes
    LAVHALAR
    Показать сообщения:    
    Главная  Кинофильмы  Кинофильмы (HEVC)

    Текущее время: 04-Июн 13:36

    Часовой пояс: UTC + 5



    Вы не можете начинать темы
    Вы не можете отвечать на сообщения
    Вы не можете редактировать свои сообщения
    Вы не можете удалять свои сообщения
    Вы не можете голосовать в опросах
    Вы не можете прикреплять файлы к сообщениям
    Вы не можете скачивать файлы