Богиня благословляет этот прекрасный мир: Багровая легенда / KonoSuba: Kurenai Densetsu (Канасаки Такаоми) [Фильм] [2019, Гарем, комедия, приключения, романтика, сёнэн, фэнтези, BDRip 400р] MVO (AniSTAR) :: UZTOR.PW Лучший трекер в зоне TAS-IX!
 
Уважаемые гости сайта! Добро Пожаловать на наш торрент трекер,где Вы можете бесплатно скачать любой Софт,Фильмы,Музыку и многое другое! А так же постоянно ведется набор модераторов и релизеров. Зарегистрируйтесь сейчас, чтобы получить доступ ко всем функциям. После регистрации или входа на сайт вы сможете создавать темы, отвечать на сообщения и скачивать файлы.

Навигация по Торрент раздачам и Форум и Стол заказов и Группы



 Богиня благословляет этот прекрасный мир: Багровая легенда / KonoSuba: Kurenai Densetsu (Канасаки Такаоми) [Фильм] [2019, Гарем, комедия, приключения, романтика, сёнэн, фэнтези, BDRip 400р] MVO (AniSTAR)

Главная  Аниме  Манга и OVA  Артбуки и Полнометражки
Статистика раздачи
Нет
 
     
 
 
Автор Сообщение
  • -InVoKeR- ®
  • Не в сети
  • Автор темы

  • 5057
  • VIP пользователь

  • Пол: Мужской

  • Стаж: 1 год 6 месяцев

  • Сообщений: 565

  •  Узбекистан

  • Откуда: из Криптона

  • Провайдер: UzOnline UzOnline

  • Тарифный план: Unlim 4 (Мир: 4 Мбит/с, Tas-ix: 100Мбит/с)

  • Steam: 76561198442747843

  • Telegram: i_Invoker

  • Карма: 1130


  • Наличие запрета:

  • Награды: 22 (Подробнее)
    Admin (Количество: 1) Авторитет (Количество: 1) Активный релизер 1 (Количество: 1) Активный релизер 2 (Количество: 1) Активный сидер 1 (Количество: 1)
  • Создавать темы 09-Май-2020 02:18

    -Этот замечательный мир! Багровая легенда
    Богиня благословляет этот прекрасный мир: Багровая легенда

    Kono Subarashii Sekai ni Shukufuku wo!: Kurenai Densetsu
    --Год выпуска: 2019
    Производство: Япония
    Студия: J.C. Staff
    Жанр: гарем, комедия, приключения, романтика, сёнэн, фэнтези
    Продолжительность: 01:33:41
    Перевод : Любительский (многоголосый, закадровый) AniSTAR-Режиссер: Канасаки Такаоми
    Автор оригинала: Акацуки Нацумэ-В главных: Дзюн Фукусима, Сора Амамия,Риэ Такахаси, Аи Каяно, Аки Тоёсаки,Юи Хориэ, Масакадзу Нисида, Хитоми Набатамэ, Мария Наганава, Такахаси Хироки-Описание: Приключения четырёх неудачливых героев продолжаются! На этот раз родная деревня Мэгумин и Юн-юн находится под угрозой уничтожения Владыкой демонов, который направляет туда одного из своих генералов. В отчаянии Юн-юн приходит к Казуме и просит его о помощи. Команда приключенцев направляется в деревню, чтобы предотвратить её уничтожение.-Возрастное ограничение: 16+-Качество: BDRip
    Формат: AVI
    Видео: 720x400 (16:9), 23.976 fps, 1 923 kb/s (0.278 bit/pixel)
    Аудио №1: AC-3, 48,0 КГц, 2 ch, 192 /сек, CBR | | AniSTAR
    Аудио №2: AC-3, 48,0 КГц, 6 ch, 448 /сек, CBR | | Japan (Оригинал)
    Русские Субтитры: Есть [Crunchyroll] (Полный Перевод)-

    MediaInfo

    General
    Complete name : [Deadmau- RAWS] Kono.Subarashii.Sekai.ni.Shukufuku.wo.Kurenai.Densetsu.2020.RUS.JAP.BDRip.Deadmauvlad.avi
    Format : AVI
    Format/Info : Audio Video Interleave
    File size : 1.62 GiB
    Duration : 1 h 29 min
    Overall bit rate : 2 577 kb/s
    Movie name : [Deadmau- RAWS] Kono.Subarashii.Sekai.ni.Shukufuku.wo.Kurenai.Densetsu.2020.RUS.JAP.BDRip.Deadmauvlad
    Director : Encoder by Deadmauvlad
    Genre : приключения, фэнтези
    Writing application : VirtualDubMod 1.5.10.3 | www.virtualdub-fr.org || (build 2550/release)
    Writing library : VirtualDubMod build 2550/release
    Original source form/Name : Аниме
    Copyright : Encoder by Deadmauvlad
    Comment : Encoder by Deadmauvlad
    Video
    ID : 0
    Format : MPEG-4 Visual
    Format profile : Advanced Simple@L5
    Format settings : BVOP1 / Custom Matrix
    Format settings, BVOP : 1
    Format settings, QPel : No
    Format settings, GMC : No warppoints
    Format settings, Matrix : Custom
    Codec ID : XVID
    Codec ID/Hint : XviD
    Duration : 1 h 29 min
    Bit rate : 1 923 kb/s
    Width : 720 pixels
    Height : 400 pixels
    Display aspect ratio : 16:9
    Frame rate : 23.976 (24000/1001) FPS
    Color space : YUV
    Chroma subsampling : 4:2:0
    Bit depth : 8 bits
    Scan type : Progressive
    Compression mode : Lossy
    Bits/(Pixel*Frame) : 0.278
    Stream size : 1.21 GiB (75%)
    Writing library : XviD 73
    Audio #1
    ID : 1
    Format : AC-3
    Format/Info : Audio Coding 3
    Commercial name : Dolby Digital
    Codec ID : 2000
    Duration : 1 h 29 min
    Bit rate mode : Constant
    Bit rate : 192 kb/s
    Channel(s) : 2 channels
    Channel layout : L R
    Sampling rate : 48.0 kHz
    Frame rate : 31.250 FPS (1536 SPF)
    Bit depth : 16 bits
    Compression mode : Lossy
    Delay relative to video : 1 s 57 ms
    Stream size : 124 MiB (7%)
    Alignment : Split accross interleaves
    Interleave, duration : 42 ms (1.00 video frame)
    Interleave, preload duration : 500 ms
    Audio #2
    ID : 2
    Format : AC-3
    Format/Info : Audio Coding 3
    Commercial name : Dolby Digital
    Codec ID : 2000
    Duration : 1 h 29 min
    Bit rate mode : Constant
    Bit rate : 448 kb/s
    Channel(s) : 6 channels
    Channel layout : L R C LFE Ls Rs
    Sampling rate : 48.0 kHz
    Frame rate : 31.250 FPS (1536 SPF)
    Bit depth : 16 bits
    Compression mode : Lossy
    Stream size : 288 MiB (17%)
    Alignment : Split accross interleaves
    Interleave, duration : 42 ms (1.00 video frame)
    Interleave, preload duration : 500 ms
    -

    _________________
    Показать сообщения:    
    Главная  Аниме  Манга и OVA  Артбуки и Полнометражки

    Текущее время: 01-Июн 19:00

    Часовой пояс: UTC + 5



    Вы не можете начинать темы
    Вы не можете отвечать на сообщения
    Вы не можете редактировать свои сообщения
    Вы не можете удалять свои сообщения
    Вы не можете голосовать в опросах
    Вы не можете прикреплять файлы к сообщениям
    Вы не можете скачивать файлы