Тёмный лес / The Woods (Лаки МакКи) [2006, ужасы, триллер, детектив, BDRip 720p] :: UZTOR.PW Лучший трекер в зоне TAS-IX!
 
Уважаемые гости сайта! Добро Пожаловать на наш торрент трекер,где Вы можете бесплатно скачать любой Софт,Фильмы,Музыку и многое другое! А так же постоянно ведется набор модераторов и релизеров. Зарегистрируйтесь сейчас, чтобы получить доступ ко всем функциям. После регистрации или входа на сайт вы сможете создавать темы, отвечать на сообщения и скачивать файлы.

Навигация по Торрент раздачам и Форум и Стол заказов и Группы



 Тёмный лес / The Woods (Лаки МакКи) [2006, ужасы, триллер, детектив, BDRip 720p]

Главная  Кинофильмы  Зарубежные кинофильмы  Фильмы 2000-2010 годов
Статистика раздачи
Нет
 
     
 
 
Автор Сообщение
  • Andrey ®
  • Не в сети
  • Автор темы

  • 6662
  • VIP пользователь

  • Пол: Мужской

  • Стаж: 1 месяц 8 дней

  • Сообщений: 10

  •  Россия

  • Провайдер: Beeline Beeline

  • Карма: 0


  • Наличие запрета:

  • Награды: Нет
  • Создавать темы 26-Апр-2020 14:38

    Тёмный лес / The Woods-Год выпуска: 2006
    Страна: США, Германия, Великобритания
    Жанр: ужасы, триллер, детектив
    Продолжительность: 01:31:04
    Перевод: Профессиональный многоголосый | R5
    Перевод: профессиональный двухголосый | HTB+
    Субтитры: Английские-В ролях: Агнес Брукнер, Эмма Кэмпбелл, Брюс Кэмпбелл, Патришия Кларксон, Лоурен Биркелл, Джейн Гилкрист, Катрин Колви, Марсия Беннетт, Рэйчел Николс, Кэтлин Мэкки, Кэри Лоуренс, Коллин Уильямс, Гордон Карри, Джуд Бени, Мэгги Касл, Эмбер Кулл, Джеймс Брэдфорд, Ивана Шеин, Лесли Коттл
    Режиссёр: Лаки МакКи-Описание: Приехав в затерянную среди лесов элитную школу-интернат для девочек, юная Хизер с самого начала пришлась не ко двору. Как сверстницы, так и педагоги сразу невзлюбили эту мрачную и странную ученицу. Всеми третируемая, бедная Хизер пребывает на грани отчаяния, её психика дает сбои, и несчастную начинают мучить галлюцинации. Однако, похоже, не все ее видения можно списать на плоды больного воображения. В интернате одна за другой начинают пропадать девушки, и только героиня, благодаря своим жутким грёзам, чувствует, что какая-то злая сила, скрытая в местных чащах, ведёт охоту за жизнями учениц. И если Хизер не разрешит эту сверхъестественную загадку, вскоре придет её черед накормить своей душой затаившуюся в лесу Тьму...-Качество: BDRip 720p
    Формат: MKV
    Видео кодек: AVC
    Аудио кодек: AC3
    Видео: MPEG-4 AVC, 4632 Кбит/с, 1280x546, 23.976 кадр/c
    Аудио 1: русский, AC3, 448 kbps, 6 ch, 48 kHz [закадровый многоголосый, R5]
    Аудио 2: русский, AC3, 192 kbps, 2 ch, 48 kHz [закадровый двухголосый, HTB+]
    Аудио 3: английский, AC3, 448 kbps, 6 ch, 48 kHz [оригинал]-

    MediaInfo

    Общее
    Уникальный идентификатор                 : 199555001444675172024703405819033296247 (0x9620E5314BE2BB3CABA793E1004C1D77)
    Полное имя                               : D:\Video\Тёмный лес.2006.BDRip 720p by msltel.mkv
    Формат                                   : Matroska
    Версия формата                           : Version 4
    Размер файла                             : 3,64 Гбайт
    Продолжительность                        : 1 ч. 31 м.
    Общий поток                              : 5 722 Кбит/сек
    Название фильма                          : Rip by msltel
    Дата кодирования                         : UTC 2020-04-26 01:09:07
    Программа кодирования                    : mkvmerge v8.2.0 ('World of Adventure') 64bit
    Библиотека кодирования                   : libebml v1.3.1 + libmatroska v1.4.2
    Видео
    Идентификатор                            : 1
    Формат                                   : AVC
    Формат/Информация                        : Advanced Video Codec
    Профиль формата                          : High@L4.1
    Настройки формата                        : CABAC / 11 Ref Frames
    Параметр CABAC формата                   : Да
    Параметр RefFrames формата               : 11 кадров
    Идентификатор кодека                     : V_MPEG4/ISO/AVC
    Продолжительность                        : 1 ч. 31 м.
    Битрейт                                  : 4 632 Кбит/сек
    Ширина                                   : 1 280 пикселей
    Высота                                   : 546 пикселей
    Соотношение сторон                       : 2,35:1
    Режим частоты кадров                     : Постоянный
    Частота кадров                           : 23,976 (24000/1001) кадра/сек
    Цветовое пространство                    : YUV
    Субдискретизация насыщенности            : 4:2:0
    Битовая глубина                          : 8 бит
    Тип развёртки                            : Прогрессивная
    Бит/(Пиксели*Кадры)                      : 0.276
    Размер потока                            : 2,95 Гбайт (81%)
    Библиотека кодирования                   : x264 core 159 r2991 1771b55
    Настройки программы                      : cabac=1 / ref=11 / deblock=1:-2:-2 / analyse=0x3:0x113 / me=umh / subme=11 / psy=1 / psy_rd=1.00:0.15 / mixed_ref=1 / me_range=32 / chroma_me=1 / trellis=2 / 8x8dct=1 / cqm=0 / deadzone=21,11 / fast_pskip=0 / chroma_qp_offset=-3 / threads=6 / lookahead_threads=1 / sliced_threads=0 / nr=0 / decimate=1 / interlaced=0 / bluray_compat=0 / constrained_intra=0 / bframes=10 / b_pyramid=2 / b_adapt=2 / b_bias=0 / direct=1 / weightb=1 / open_gop=0 / weightp=2 / keyint=230 / keyint_min=23 / scenecut=40 / intra_refresh=0 / rc_lookahead=40 / rc=crf / mbtree=1 / crf=17.0 / qcomp=0.60 / qpmin=0 / qpmax=69 / qpstep=4 / vbv_maxrate=50000 / vbv_bufsize=62500 / crf_max=0.0 / nal_hrd=none / filler=0 / ip_ratio=1.40 / aq=1:1.00
    Язык                                     : English
    Default                                  : Да
    Forced                                   : Нет
    Аудио #1
    Идентификатор                            : 2
    Формат                                   : AC-3
    Формат/Информация                        : Audio Coding 3
    Коммерческое название                    : Dolby Digital
    Идентификатор кодека                     : A_AC3
    Продолжительность                        : 1 ч. 31 м.
    Вид битрейта                             : Постоянный
    Битрейт                                  : 448 Кбит/сек
    Каналы                                   : 6 каналов
    Channel layout                           : L R C LFE Ls Rs
    Частота                                  : 48,0 КГц
    Частота кадров                           : 31,250 кадров/сек (1536 SPF)
    Метод сжатия                             : С потерями
    Размер потока                            : 292 Мбайт (8%)
    Заголовок                                : MVO R5
    Язык                                     : Russian
    Service kind                             : Complete Main
    Default                                  : Да
    Forced                                   : Нет
    Аудио #2
    Идентификатор                            : 3
    Формат                                   : AC-3
    Формат/Информация                        : Audio Coding 3
    Коммерческое название                    : Dolby Digital
    Идентификатор кодека                     : A_AC3
    Продолжительность                        : 1 ч. 31 м.
    Вид битрейта                             : Постоянный
    Битрейт                                  : 192 Кбит/сек
    Каналы                                   : 2 канала
    Channel layout                           : L R
    Частота                                  : 48,0 КГц
    Частота кадров                           : 31,250 кадров/сек (1536 SPF)
    Метод сжатия                             : С потерями
    Размер потока                            : 125 Мбайт (3%)
    Заголовок                                : DVO HTB+
    Язык                                     : Russian
    Service kind                             : Complete Main
    Default                                  : Нет
    Forced                                   : Нет
    Аудио #3
    Идентификатор                            : 4
    Формат                                   : AC-3
    Формат/Информация                        : Audio Coding 3
    Коммерческое название                    : Dolby Digital
    Идентификатор кодека                     : A_AC3
    Продолжительность                        : 1 ч. 31 м.
    Вид битрейта                             : Постоянный
    Битрейт                                  : 448 Кбит/сек
    Каналы                                   : 6 каналов
    Channel layout                           : L R C LFE Ls Rs
    Частота                                  : 48,0 КГц
    Частота кадров                           : 31,250 кадров/сек (1536 SPF)
    Метод сжатия                             : С потерями
    Размер потока                            : 292 Мбайт (8%)
    Заголовок                                : original
    Язык                                     : English
    Service kind                             : Complete Main
    Default                                  : Нет
    Forced                                   : Нет
    Текст
    Идентификатор                            : 5
    Формат                                   : UTF-8
    Идентификатор кодека                     : S_TEXT/UTF8
    Идентификатор кодека/Информация          : UTF-8 Plain Text
    Продолжительность                        : 1 ч. 24 м.
    Битрейт                                  : 36 бит/сек
    Count of elements                        : 683
    Размер потока                            : 22,4 Кбайт (0%)
    Заголовок                                : английские
    Язык                                     : English
    Default                                  : Нет
    Forced                                   : Нет
    Меню
    00:00:00.000                             : en:Chapter 1
    00:00:10.927                             : en:Chapter 2
    00:11:32.858                             : en:Chapter 3
    00:23:41.920                             : en:Chapter 4
    00:35:39.053                             : en:Chapter 5
    00:46:09.975                             : en:Chapter 6
    00:55:09.431                             : en:Chapter 7
    01:04:42.295                             : en:Chapter 8
    01:16:16.780                             : en:Chapter 9
    01:31:14.468                             : en:Chapter 10

    Скриншоты

    Показать сообщения:    
    Главная  Кинофильмы  Зарубежные кинофильмы  Фильмы 2000-2010 годов

    Текущее время: 01-Июн 18:49

    Часовой пояс: UTC + 5



    Вы не можете начинать темы
    Вы не можете отвечать на сообщения
    Вы не можете редактировать свои сообщения
    Вы не можете удалять свои сообщения
    Вы не можете голосовать в опросах
    Вы не можете прикреплять файлы к сообщениям
    Вы не можете скачивать файлы