Путь дракона / Meng long guo jiang (Брюс Ли) [1972, Боевик, криминал, боевые искусства, UHD-BDRip 720p] :: UZTOR.PW Лучший трекер в зоне TAS-IX!
 
Уважаемые гости сайта! Добро Пожаловать на наш торрент трекер,где Вы можете бесплатно скачать любой Софт,Фильмы,Музыку и многое другое! А так же постоянно ведется набор модераторов и релизеров. Зарегистрируйтесь сейчас, чтобы получить доступ ко всем функциям. После регистрации или входа на сайт вы сможете создавать темы, отвечать на сообщения и скачивать файлы.

Навигация по Торрент раздачам и Форум и Стол заказов и Группы



 Путь дракона / Meng long guo jiang (Брюс Ли) [1972, Боевик, криминал, боевые искусства, UHD-BDRip 720p]

Главная  Кинофильмы  Зарубежные кинофильмы  Фильмы до 2000 года
Статистика раздачи
Нет
 
     
 
 
Автор Сообщение
  • Andrey ®
  • Не в сети
  • Автор темы

  • 6662
  • VIP пользователь

  • Пол: Мужской

  • Стаж: 1 месяц 12 дней

  • Сообщений: 10

  •  Россия

  • Провайдер: Beeline Beeline

  • Карма: 0


  • Наличие запрета:

  • Награды: Нет
  • Создавать темы 25-Апр-2020 20:26

    Путь дракона / Meng long guo jiang-Год выпуска: 1972
    Страна: Гонконг
    Жанр: Боевик, криминал, боевые искусства
    Продолжительность: 01:39:29
    Перевод: Профессиональный (многоголосый закадровый)
    Субтитры: русские, английские-В ролях: Брюс Ли, Нора Миао, Чак Норрис, Вэй Пинао, Роберт Уолл, Ван Вэнг, Тони Лю, Юникорн Чан, Мализа Лонго, Фу Чинг Чен, Чин Ти
    Режиссёр: Брюс Ли-Описание: Тан приезжает из Гонконга в Рим, чтобы помочь друзьям семьи, чей ресторан задумали отобрать местные мафиози. Привыкшие всегда получать то, что захотят и не останавливаться ни перед чем, бандиты совершили большую ошибку, недооценив с виду скромного молодого человека.
    Не сумев справиться с ним своими силами, мафиози нанимают лучших европейских и японских мастеров боевых искусств, но Тан с легкостью побеждает всех. И тогда против него на арену древнего Колизея выходит «крутой и смертоносный» американец Колт.-Качество: UHD-BDRip 720p
    Формат: MKV
    Видео кодек: H.264
    Аудио кодек: AC3
    Видео: 1280x546 (2.35:1), 6006 kbps, 23.976 fps
    Аудио: Русский (AC3, 6ch, 448 Кбит/с) - Superbit
    Аудио: Русский (AC3, 6ch, 384 Кбит/с) - Twister
    Аудио: Русский (AC3, 2ch, 192 Кбит/с) - СТС
    Аудио: Русский (AC3, 2ch, 192 Кбит/с) - Ren-TV-

    MediaInfo

    x264 [info]: frame I:1053 Avg QP:18.08 size:174633
    x264 [info]: frame P:38262 Avg QP:19.35 size: 75121
    x264 [info]: frame B:103800 Avg QP:21.07 size: 13708
    x264 [info]: consecutive B-frames: 5.6% 2.7% 21.7% 13.9% 15.3% 39.0% 1.6% 0.1% 0.1%
    General
    Unique ID : 295432077171022490169961486903625744792 (0xDE4225FD415BBA0FE25BDD7450118198)
    Complete name : F:ФИЛЬМЫРУТОРПуть Дракона. BDRip 720p.mkv
    Format : Matroska
    Format version : Version 4
    File size : 5.02 GiB
    Duration : 1 h 39 min
    Overall bit rate : 7 218 kb/s
    Movie name : Путь дракона / Meng long guo jiang (1972) - #LORDKILL#
    Encoded date : UTC 2020-04-25 14:05:40
    Writing application : mkvmerge v32.0.0 ('Astral Progressions') 64-bit
    Writing library : libebml v1.3.7 + libmatroska v1.5.0
    Cover : Yes
    Attachments : cover.jpg / xlog.txt / small_cover.jpg / small_cover_land.jpg / cover.jpg / cover_land.jpg / small_cover_land.jpg / cover.jpg / cover_land.jpg / small_cover.jpg
    Video
    ID : 1
    Format : AVC
    Format/Info : Advanced Video Codec
    Format profile : High@L4.1
    Format settings : CABAC / 12 Ref Frames
    Format settings, CABAC : Yes
    Format settings, Reference : 12 frames
    Codec ID : V_MPEG4/ISO/AVC
    Duration : 1 h 39 min
    Bit rate : 6 006 kb/s
    Width : 1 280 pixels
    Height : 546 pixels
    Display aspect ratio : 2.35:1
    Frame rate mode : Constant
    Frame rate : 23.976 (24000/1001) FPS
    Color space : YUV
    Chroma subsampling : 4:2:0
    Bit depth : 8 bits
    Scan type : Progressive
    Bits/(Pixel*Frame) : 0.358
    Stream size : 4.17 GiB (83%)
    Writing library : x264 core 159 r2991 1771b55
    Encoding settings : cabac=1 / ref=12 / deblock=1:0:0 / analyse=0x3:0x113 / me=umh / subme=10 / psy=1 / psy_rd=1.00:0.20 / mixed_ref=1 / me_range=32 / chroma_me=1 / trellis=2 / 8x8dct=1 / cqm=0 / deadzone=21,11 / fast_pskip=0 / chroma_qp_offset=-3 / threads=12 / lookahead_threads=2 / sliced_threads=0 / nr=0 / decimate=1 / interlaced=0 / bluray_compat=0 / constrained_intra=0 / bframes=8 / b_pyramid=2 / b_adapt=2 / b_bias=0 / direct=1 / weightb=1 / open_gop=0 / weightp=2 / keyint=240 / keyint_min=23 / scenecut=40 / intra_refresh=0 / rc=crf / mbtree=0 / crf=18.0 / qcomp=0.60 / qpmin=0 / qpmax=69 / qpstep=4 / ip_ratio=1.40 / pb_ratio=1.30 / aq=1:1.00
    Default : Yes
    Forced : No
    Audio #1
    ID : 2
    Format : AC-3
    Format/Info : Audio Coding 3
    Commercial name : Dolby Digital
    Codec ID : A_AC3
    Duration : 1 h 39 min
    Bit rate mode : Constant
    Bit rate : 448 kb/s
    Channel(s) : 6 channels
    Channel layout : L R C LFE Ls Rs
    Sampling rate : 48.0 kHz
    Frame rate : 31.250 FPS (1536 SPF)
    Compression mode : Lossy
    Stream size : 318 MiB (6%)
    Title : Многоголосый (Superbit)
    Language : Russian
    Service kind : Complete Main
    Default : Yes
    Forced : No
    Audio #2
    ID : 3
    Format : AC-3
    Format/Info : Audio Coding 3
    Commercial name : Dolby Digital
    Codec ID : A_AC3
    Duration : 1 h 38 min
    Bit rate mode : Constant
    Bit rate : 384 kb/s
    Channel(s) : 6 channels
    Channel layout : L R C LFE Ls Rs
    Sampling rate : 48.0 kHz
    Frame rate : 31.250 FPS (1536 SPF)
    Compression mode : Lossy
    Delay relative to video : 47 s 0 ms
    Stream size : 271 MiB (5%)
    Title : Многоголосый (Twister)
    Language : Russian
    Service kind : Complete Main
    Default : No
    Forced : No
    Audio #3
    ID : 4
    Format : AC-3
    Format/Info : Audio Coding 3
    Commercial name : Dolby Digital
    Codec ID : A_AC3
    Duration : 1 h 38 min
    Bit rate mode : Constant
    Bit rate : 192 kb/s
    Channel(s) : 2 channels
    Channel layout : L R
    Sampling rate : 48.0 kHz
    Frame rate : 31.250 FPS (1536 SPF)
    Compression mode : Lossy
    Delay relative to video : 47 s 0 ms
    Stream size : 135 MiB (3%)
    Title : Многоголосый (СТС)
    Language : Russian
    Service kind : Complete Main
    Default : No
    Forced : No
    Audio #4
    ID : 5
    Format : AC-3
    Format/Info : Audio Coding 3
    Commercial name : Dolby Digital
    Codec ID : A_AC3
    Duration : 1 h 38 min
    Bit rate mode : Constant
    Bit rate : 192 kb/s
    Channel(s) : 2 channels
    Channel layout : L R
    Sampling rate : 48.0 kHz
    Frame rate : 31.250 FPS (1536 SPF)
    Compression mode : Lossy
    Delay relative to video : 47 s 0 ms
    Stream size : 135 MiB (3%)
    Title : Многоголосый (Ren-TV)
    Language : Russian
    Service kind : Complete Main
    Default : No
    Forced : No
    Text #1
    ID : 6
    Format : UTF-8
    Codec ID : S_TEXT/UTF8
    Codec ID/Info : UTF-8 Plain Text
    Duration : 1 h 37 min
    Bit rate : 46 b/s
    Count of elements : 642
    Stream size : 33.1 KiB (0%)
    Language : Russian
    Default : No
    Forced : No
    Text #2
    ID : 7
    Format : UTF-8
    Codec ID : S_TEXT/UTF8
    Codec ID/Info : UTF-8 Plain Text
    Duration : 1 h 34 min
    Bit rate : 22 b/s
    Count of elements : 595
    Stream size : 15.7 KiB (0%)
    Language : English
    Default : No
    Forced : No
    Menu
    00:00:00.000 : en:Chapter 1
    00:02:10.921 : en:Chapter 2
    00:12:11.605 : en:Chapter 3
    00:17:37.056 : en:Chapter 4
    00:20:49.455 : en:Chapter 5
    00:28:57.359 : en:Chapter 6
    00:35:07.313 : en:Chapter 7
    00:40:19.250 : en:Chapter 8
    00:42:13.322 : en:Chapter 9
    00:43:59.302 : en:Chapter 10
    00:45:22.385 : en:Chapter 11
    00:47:07.199 : en:Chapter 12
    00:55:39.918 : en:Chapter 13
    01:02:06.304 : en:Chapter 14
    01:08:17.426 : en:Chapter 15
    01:11:37.667 : en:Chapter 16
    01:14:07.317 : en:Chapter 17
    01:21:06.485 : en:Chapter 18
    01:34:34.917 : en:Chapter 19
    01:36:15.728 : en:Chapter 20

    Скриншоты



    Последний раз редактировалось: Andrey (2020-04-26 13:38), всего редактировалось 1 раз
    Показать сообщения:    
    Главная  Кинофильмы  Зарубежные кинофильмы  Фильмы до 2000 года

    Текущее время: 06-Июн 15:22

    Часовой пояс: UTC + 5



    Вы не можете начинать темы
    Вы не можете отвечать на сообщения
    Вы не можете редактировать свои сообщения
    Вы не можете удалять свои сообщения
    Вы не можете голосовать в опросах
    Вы не можете прикреплять файлы к сообщениям
    Вы не можете скачивать файлы