Уважаемые гости сайта! Добро Пожаловать на наш торрент трекер,где Вы можете бесплатно скачать любой Софт,Фильмы,Музыку и многое другое! А так же постоянно ведется набор модераторов и релизеров. Зарегистрируйтесь сейчас, чтобы получить доступ ко всем функциям. После регистрации или входа на сайт вы сможете создавать темы, отвечать на сообщения и скачивать файлы.

До нового года осталось

Навигация по Торрент раздачам и Форум и Стол заказов и Группы

  Гретель и Гензель / Gretel & Hansel (Оз Перкинс) [2020, Ужасы, фэнтези, триллер, BDRip 720p] DUB [iTunes]

Главная  Кинофильмы  Зарубежные кинофильмы  HD
Статистика раздачи
Скачал: [ 1 ]
Сегодня идет свободное скачивание без начисления Download
 
     
 
 
 
Автор Сообщение
  • Andrey ®
  • Не в сети

    Автор темы

  • 6662
  • Пол: Мужской

  • Стаж: 7 месяцев 10 дней

  • Сообщений: 10

  • Провайдер: Beeline Beeline

  • Карма: 0


  • Нет нарушения:

  • Награды: Нет
  • Создавать темы 25-Апр-2020 16:37

    Гретель и Гензель / Gretel & Hansel-Год выпуска: 2020
    Страна: Ирландия, Канада, США, ЮАР
    Жанр: Ужасы, фэнтези, триллер
    Продолжительность: 01:27:20
    Перевод: Дублированный | iTunes
    Субтитры: Русские (Full), английские-В ролях: София Лиллис, Сэмми Лики, Элис Крайдж, Джессика Де Гау, Чарльз Бабалола, Йен Кенни, Абдул Альшариф, Мануэль Помбо, Беатрикс Перкинс
    Режиссёр: Оз Перкинс-Описание: Новая версия старинной сказки братьев Гримм о зловещих приключениях брата и сестры в Очарованном лесу. В поисках еды голодные Грета и Гензель отправляются в лес, не подозревая, что им предстоит отведать обед дьявольской кухни и пройти все круги ада...-[kp]https://www.kinopoisk.ru/film/1209712/[/kp] [imdb]https://www.imdb.com/title/tt9086228/[/imdb]-Качество: BDRip 720p
    Формат: MKV
    Видео кодек: AVC
    Аудио кодек: AC3
    Видео: MPEG-4 AVC, 1280x692, 7777 Kbit/s, 23.976 fps
    Аудио #01: 48 kHz, AC3, 5.1, 384 Kbps | iTunes | RUS |
    Аудио #02: 48 kHz, AC3, 5.1, 640 Kbps | Оригинал | ENG |-

    MediaInfo

    General
    Unique ID : 312125277145382390701809247630344558601 (0xEAD1244ABD80EF69779536C010979809)
    Complete name : E:Video111Gretel.and.Hansel.2020.BDRip.720p.seleZen.mkv
    Format : Matroska
    Format version : Version 4
    File size : 5.37 GiB
    Duration : 1 h 27 min
    Overall bit rate : 8 797 kb/s
    Movie name : Gretel and Hansel 2020 from селезень
    Encoded date : UTC 2020-04-25 10:02:18
    Writing application : mkvmerge v40.0.0 ('Old Town Road + Pony') 64-bit
    Writing library : libebml v1.3.9 + libmatroska v1.5.2
    Video
    ID : 1
    Format : AVC
    Format/Info : Advanced Video Codec
    Format profile : High@L4.1
    Format settings : CABAC / 9 Ref Frames
    Format settings, CABAC : Yes
    Format settings, Reference : 9 frames
    Codec ID : V_MPEG4/ISO/AVC
    Duration : 1 h 27 min
    Bit rate : 7 777 kb/s
    Width : 1 280 pixels
    Height : 692 pixels
    Display aspect ratio : 1.85:1
    Frame rate mode : Constant
    Frame rate : 23.976 (24000/1001) FPS
    Color space : YUV
    Chroma subsampling : 4:2:0
    Bit depth : 8 bits
    Scan type : Progressive
    Bits/(Pixel*Frame) : 0.366
    Stream size : 4.74 GiB (88%)
    Title : Encoded by seleZen
    Writing library : x264 core 142 r2431+42 c69a006 tMod [8-bit@all X86_64]
    Encoding settings : cabac=1 / ref=9 / deblock=1:-2:-2 / analyse=0x3:0x133 / me=umh / subme=10 / psy=1 / fade_compensate=0.00 / psy_rd=1.00:0.00 / mixed_ref=1 / me_range=32 / chroma_me=1 / trellis=2 / 8x8dct=1 / cqm=0 / deadzone=21,11 / fast_pskip=0 / chroma_qp_offset=-2 / threads=24 / lookahead_threads=4 / sliced_threads=0 / nr=0 / decimate=0 / interlaced=0 / bluray_compat=0 / constrained_intra=0 / fgo=0 / bframes=8 / b_pyramid=2 / b_adapt=2 / b_bias=0 / direct=3 / weightb=1 / open_gop=0 / weightp=2 / keyint=240 / keyint_min=23 / scenecut=40 / intra_refresh=0 / rc_lookahead=50 / rc=2pass / mbtree=0 / bitrate=7777 / ratetol=1.0 / qcomp=0.60 / qpmin=0:0:0 / qpmax=51:51:51 / qpstep=4 / cplxblur=20.0 / qblur=0.5 / vbv_maxrate=50000 / vbv_bufsize=62500 / nal_hrd=none / filler=0 / ip_ratio=1.40 / pb_ratio=1.30 / aq=3:0.80 / aq-sensitivity=10.00 / aq-factor=1.00:1.00:1.00 / aq2=0 / aq3=0
    Language : English
    Default : Yes
    Forced : No
    Audio #1
    ID : 2
    Format : AC-3
    Format/Info : Audio Coding 3
    Commercial name : Dolby Digital
    Codec ID : A_AC3
    Duration : 1 h 27 min
    Bit rate mode : Constant
    Bit rate : 384 kb/s
    Channel(s) : 6 channels
    Channel layout : L R C LFE Ls Rs
    Sampling rate : 48.0 kHz
    Frame rate : 31.250 FPS (1536 SPF)
    Compression mode : Lossy
    Stream size : 240 MiB (4%)
    Title : iTunes
    Language : Russian
    Service kind : Complete Main
    Default : Yes
    Forced : Yes
    Audio #2
    ID : 3
    Format : AC-3
    Format/Info : Audio Coding 3
    Commercial name : Dolby Digital
    Codec ID : A_AC3
    Duration : 1 h 27 min
    Bit rate mode : Constant
    Bit rate : 640 kb/s
    Channel(s) : 6 channels
    Channel layout : L R C LFE Ls Rs
    Sampling rate : 48.0 kHz
    Frame rate : 31.250 FPS (1536 SPF)
    Compression mode : Lossy
    Stream size : 400 MiB (7%)
    Title : Original
    Language : English
    Service kind : Complete Main
    Default : No
    Forced : No
    Text #1
    ID : 4
    Format : UTF-8
    Codec ID : S_TEXT/UTF8
    Codec ID/Info : UTF-8 Plain Text
    Duration : 1 h 26 min
    Bit rate : 65 b/s
    Count of elements : 809
    Stream size : 41.3 KiB (0%)
    Title : Full
    Language : Russian
    Default : No
    Forced : No
    Text #2
    ID : 5
    Format : UTF-8
    Codec ID : S_TEXT/UTF8
    Codec ID/Info : UTF-8 Plain Text
    Duration : 1 h 21 min
    Bit rate : 41 b/s
    Count of elements : 815
    Stream size : 24.6 KiB (0%)
    Title : Full
    Language : English
    Default : No
    Forced : No
    Menu
    00:00:00.000 : :Chapter 1
    00:09:17.265 : :Chapter 2
    00:18:36.323 : :Chapter 3
    00:28:10.188 : :Chapter 4
    00:36:36.194 : :Chapter 5
    00:44:25.579 : :Chapter 6
    00:54:17.963 : :Chapter 7
    01:04:07.593 : :Chapter 8
    01:12:42.107 : :Chapter 9
    01:22:15.096 : :Chapter 10

    Скриншоты

      -746

    Создавать темы 26-Апр-2020 01:41 (спустя 9 часов)

    Топик был перенесен из форума Новинки в форум HD


    -InVoKeR-
    Показать сообщения:    
    Главная  Кинофильмы  Зарубежные кинофильмы  HD

    Текущее время: 04-Дек 19:05

    Часовой пояс: UTC + 5



    Вы не можете начинать темы
    Вы не можете отвечать на сообщения
    Вы не можете редактировать свои сообщения
    Вы не можете удалять свои сообщения
    Вы не можете голосовать в опросах
    Вы не можете прикреплять файлы к сообщениям
    Вы не можете скачивать файлы