Когда Эндрю вернулся домой / When Andrew Came Home (Арти Мандельберг) [2000, драма, WEB-DL 1080p] AVO (Антон Алексеев) :: UZTOR.PW Лучший трекер в зоне TAS-IX!
 
Уважаемые гости сайта! Добро Пожаловать на наш торрент трекер,где Вы можете бесплатно скачать любой Софт,Фильмы,Музыку и многое другое! А так же постоянно ведется набор модераторов и релизеров. Зарегистрируйтесь сейчас, чтобы получить доступ ко всем функциям. После регистрации или входа на сайт вы сможете создавать темы, отвечать на сообщения и скачивать файлы.

Навигация по Торрент раздачам и Форум и Стол заказов и Группы



  Когда Эндрю вернулся домой / When Andrew Came Home (Арти Мандельберг) [2000, драма, WEB-DL 1080p] AVO (Антон Алексеев)

Главная  Кинофильмы  Зарубежные кинофильмы  Фильмы 2000-2010 годов
Статистика раздачи
Нет
 
     
 
 
Автор Сообщение
  • Andrey ®
  • Не в сети
  • Автор темы

  • 6662
  • VIP пользователь

  • Пол: Мужской

  • Стаж: 1 месяц 13 дней

  • Сообщений: 10

  •  Россия

  • Провайдер: Beeline Beeline

  • Карма: 0


  • Наличие запрета:

  • Награды: Нет
  • Создавать темы 25-Апр-2020 15:02

    Когда Эндрю вернулся домой / When Andrew Came Home-Год выпуска: 2000
    Страна: США
    Жанр: драма
    Продолжительность: 01:31:17
    Перевод: Авторский одноголосый | Антон Алексеев
    Субтитры: Английские (вшитые, отключаемые)-В ролях: Парк Овералл, Джейсон Бех, Сет Эдкинс, Линн Дерагон, Крэйг Элдридж, Шэннон Лоусон, Карл Маротт, Патрик Чилверс, Джефф Кларк, Стэн Коулз, Ив Кроуфорд, Жан Дэйгл, Шэйн Дэйли, Джейк Голдсби, Брюс Грэй
    Режиссёр: Арти Мандельберг-Описание: Эндрю было 5 лет, когда его родители развелись и отец похитил своего же сына. Пять долгих лет безрезультатных поисков - и вдруг Эндрю возвращается. Никто не знает, где он был и что с ним случилось. И он сам уже не такой, каким был раньше…-[kp]https://www.kinopoisk.ru/film/298230/[/kp] [imdb]https://www.kinopoisk.ru/film/298230/[/imdb]-Качество: WEB-DL 1080p
    Формат: MKV
    Видео кодек: AVC
    Аудио кодек: AC3
    Видео: MPEG-4 AVC, 1920x1080 (16:9), 23.976 fps, 10.0 Mbps, 0.201 bit/pixel
    Аудио #1: русский, AC3 2.0, 48 kHz, 192 kbps
    Аудио #2: английский, E-AC3 2.0, 48 kHz, 224 kbps-

    MediaInfo

    Общее
    Уникальный идентификатор : 204768802648336422256937119550390189308 (0x9A0D09704A80F5157E0341C388D4BCFC)
    Полное имя : When.Andrew.Came.Home.2000.WEB-DL.1080p.mkv
    Формат : Matroska
    Версия формата : Version 4
    Размер файла : 6,50 Гбайт
    Продолжительность : 1 ч. 31 м.
    Общий поток : 10,2 Мбит/сек
    Дата кодирования : UTC 2019-11-20 20:06:53
    Программа кодирования : mkvmerge v37.0.0 ('Leave It') 64-bit
    Библиотека кодирования : libebml v1.3.9 + libmatroska v1.5.2
    Видео
    Идентификатор : 1
    Формат : AVC
    Формат/Информация : Advanced Video Codec
    Профиль формата : High@L4
    Настройки формата : CABAC / 4 Ref Frames
    Параметр CABAC формата : Да
    Параметр RefFrames формата : 4 кадра
    Идентификатор кодека : V_MPEG4/ISO/AVC
    Продолжительность : 1 ч. 31 м.
    Вид битрейта : Постоянный
    Битрейт : 10000 Кбит/сек
    Ширина : 1920 пикселей
    Высота : 1080 пикселей
    Соотношение сторон : 16:9
    Режим частоты кадров : Постоянный
    Частота кадров : 23,976 (24000/1001) кадра/сек
    Цветовое пространство : YUV
    Субдискретизация насыщенности : 4:2:0
    Битовая глубина : 8 бит
    Тип развёртки : Прогрессивная
    Бит/(Пиксели*Кадры) : 0.201
    Размер потока : 6,23 Гбайт (96%)
    Язык : English
    Default : Да
    Forced : Нет
    Цветовой диапазон : Limited
    Основные цвета : BT.709
    Характеристики трансфера : BT.709
    Коэффициенты матрицы : BT.709
    Аудио #1
    Идентификатор : 2
    Формат : AC-3
    Формат/Информация : Audio Coding 3
    Коммерческое название : Dolby Digital
    Идентификатор кодека : A_AC3
    Продолжительность : 1 ч. 31 м.
    Вид битрейта : Постоянный
    Битрейт : 192 Кбит/сек
    Каналы : 2 канала
    ChannelLayout : L R
    Частота : 48,0 КГц
    Частота кадров : 31,250 кадров/сек (1536 SPF)
    Битовая глубина : 16 бит
    Метод сжатия : С потерями
    Размер потока : 125 Мбайт (2%)
    Язык : Russian
    ServiceKind/ : Complete Main
    Default : Нет
    Forced : Нет
    Аудио #2
    Идентификатор : 3
    Формат : E-AC-3
    Формат/Информация : Enhanced AC-3
    Коммерческое название : Dolby Digital Plus
    Идентификатор кодека : A_EAC3
    Продолжительность : 1 ч. 31 м.
    Вид битрейта : Постоянный
    Битрейт : 224 Кбит/сек
    Каналы : 2 канала
    ChannelLayout : L R
    Частота : 48,0 КГц
    Частота кадров : 31,250 кадров/сек (1536 SPF)
    Метод сжатия : С потерями
    Размер потока : 146 Мбайт (2%)
    Язык : English
    ServiceKind : Complete Main
    Default : Нет
    Forced : Нет
    Текст
    Идентификатор : 4
    Формат : UTF-8
    Идентификатор кодека : S_TEXT/UTF8
    Идентификатор кодека/Информация : UTF-8 Plain Text
    Продолжительность : 1 ч. 30 м.
    Битрейт : 69 бит/сек
    ElementCount : 1462
    Размер потока : 45,6 Кбайт (0%)
    Язык : English
    Default : Нет
    Forced : Нет

    Скриншоты

    Показать сообщения:    
    Главная  Кинофильмы  Зарубежные кинофильмы  Фильмы 2000-2010 годов

    Текущее время: 07-Июн 14:09

    Часовой пояс: UTC + 5



    Вы не можете начинать темы
    Вы не можете отвечать на сообщения
    Вы не можете редактировать свои сообщения
    Вы не можете удалять свои сообщения
    Вы не можете голосовать в опросах
    Вы не можете прикреплять файлы к сообщениям
    Вы не можете скачивать файлы