Девочка, покорившая время / Toki wo Kakeru Shoujo / The Girl Who Leapt Through Time [Movie] [Без хардсаба] [RUS(int), JAP+SUB] [2006, приключения, фантастика, романтика, драма, 360Rip] :: UZTOR.PW Лучший трекер в зоне TAS-IX!
Регистрация ·
Имя: Пароль:  
· Забыли пароль?

Навигация по Торрент раздачам и Форум

 Девочка, покорившая время / Toki wo Kakeru Shoujo / The Girl Who Leapt Through Time [Movie] [Без хардсаба] [RUS(int), JAP+SUB] [2006, приключения, фантастика, романтика, драма, 360Rip]

Главная  Аниме  Манга и OVA  Артбуки и Полнометражки
Статистика раздачи
Нет
 
     
 
 
Автор Сообщение
  • .STRICER ®
  • Не в сети
  • 5055
  • Пол: Мужской

  • Стаж: 11 месяцев 5 дней

  • Сообщений: 137

  • Откуда: Узбекистан

  • Провайдер: UzOnline UzOnline

  • Тарифный план: UNLIM 6 / 6 Мбит/сек

  • Карма: 777


  • Наличие запрета:

  • Награды: 4 (Подробнее)
    Активный Модератор (Количество: 1) Меломан (Количество: 1) Модератор (Количество: 1) Примерный модератор (Количество: 1)
  • Создавать темы 21-Янв-2019 16:47

    Девочка, покорившая время
    Toki wo Kakeru Shoujo
    The Girl Who Leapt Through Time
    Страна: Япония
    Год выпуска: 2006 г.
    Жанр: приключения, фантастика, романтика, драма
    Тип: Movie
    Продолжительность: 1:38:19
    Режиссер: Мамору Хосода
    Студия: MAD House
    Перевод: Профессиональный (Русский)
    Описание: У старшеклассницы Макото не задался день: контрольная написана скверно, на уроке домоводства сгорела темпура, на перемене ее сшибли с ног; после уроков она относила анкеты и растянулась в лаборатории. И, в качестве эффектного завершения дня, у Макото отказал тормоз на велосипеде, причем выяснилось это как раз на железнодорожном переезде, когда поезд уже подходил... Если бы этот день пошел как-то иначе! Если бы можно было хоть что-то переиграть!..
    ...а, как известно, девочки в этом возрасте часто прыгают во времени...
    Качество: 360Rip
    Тип релиза: Без хардсаба
    Формат видео: mp4
    Видео: AVC 640x360 600kbps 25fps
    Аудио RUS (int.): AACLC 96.0 kb/s 44.1kHz 2ch

    MediaInfo

    General
    Complete name               : D:\Toki wo Kakeru Shoujo 360Rip.mp4
    Format                      : MPEG-4
    Format profile              : Base Media
    Codec ID                    : isom (isom/iso2/avc1/mp41)
    File size                   : 495 MiB
    Duration                    : 1 h 38 min
    Overall bit rate            : 704 kb/s
    Writing application         : Lavf55.22.100
    Video
    ID                          : 1
    Format                      : AVC
    Format/Info                 : Advanced Video Codec
    Format profile              : High@L3
    Format settings             : CABAC / 5 Ref Frames
    Format settings, CABAC      : Yes
    Format settings, ReFrames   : 5 frames
    Codec ID                    : avc1
    Codec ID/Info               : Advanced Video Coding
    Duration                    : 1 h 38 min
    Bit rate                    : 600 kb/s
    Width                       : 640 pixels
    Height                      : 360 pixels
    Display aspect ratio        : 16:9
    Original display aspect rat : 16:9
    Frame rate mode             : Constant
    Frame rate                  : 25.000 FPS
    Color space                 : YUV
    Chroma subsampling          : 4:2:0
    Bit depth                   : 8 bits
    Scan type                   : Progressive
    Bits/(Pixel*Frame)          : 0.104
    Stream size                 : 423 MiB (85%)
    Writing library             : x264 core 120 r2151 a3f4407
    Encoding settings           : cabac=1 / ref=5 / deblock=1:0:0 / analyse=0x3:0x113 / me=umh / subme=8 / psy=1 / psy_rd=1.00:0.00 / mixed_ref=1 / me_range=16 / chroma_me=1 / trellis=1 / 8x8dct=1 / cqm=0 / deadzone=21,11 / fast_pskip=1 / chroma_qp_offset=-2 / threads=2 / sliced_threads=0 / nr=0 / decimate=1 / interlaced=0 / bluray_compat=0 / constrained_intra=0 / bframes=3 / b_pyramid=2 / b_adapt=2 / b_bias=0 / direct=3 / weightb=1 / open_gop=0 / weightp=2 / keyint=25 / keyint_min=2 / scenecut=40 / intra_refresh=0 / rc_lookahead=25 / rc=abr / mbtree=1 / bitrate=600 / ratetol=1.0 / qcomp=0.60 / qpmin=0 / qpmax=69 / qpstep=4 / ip_ratio=1.40 / aq=1:1.00
    Codec configuration box     : avcC
    Audio
    ID                          : 2
    Format                      : AAC LC
    Format/Info                 : Advanced Audio Codec Low Complexity
    Codec ID                    : mp4a-40-2
    Duration                    : 1 h 38 min
    Bit rate mode               : Constant
    Bit rate                    : 96.0 kb/s
    Channel(s)                  : 2 channels
    Channel layout              : L R
    Sampling rate               : 44.1 kHz
    Frame rate                  : 43.066 FPS (1024 SPF)
    Compression mode            : Lossy
    Stream size                 : 67.5 MiB (14%)
    Default                     : Yes
    Alternate group             : 1

    _________________

    -
    Скачать Teredo
    Показать сообщения:    
    Главная  Аниме  Манга и OVA  Артбуки и Полнометражки

    Текущее время: 22-Окт 17:51

    Часовой пояс: UTC + 5



    Вы не можете начинать темы
    Вы не можете отвечать на сообщения
    Вы не можете редактировать свои сообщения
    Вы не можете удалять свои сообщения
    Вы не можете голосовать в опросах
    Вы не можете прикреплять файлы к сообщениям
    Вы не можете скачивать файлы